+1

Хеллбой / Hellboy (2019) BDRip 720p от селезень | D, P | Лицензия

Информация о фильме
Название: Хеллбой
Оригинальное название: Hellboy
Год выхода: 2019
Жанр: Фэнтези, боевик, приключения
Режиссер: Нил Маршалл
В ролях: Дэвид Харбор, Иэн МакШейн, Милла Йовович, Саша Лэйн, Дэниэл Дэ Ким, Алистэр Петри, Софи Оконедо, Томас Хейден Чёрч, Марк Стэнли, Брин Глисон, Надя Керанова, Мария Тепавичарова, Ана Тобакова, Пенелопа Митчелл, Терри Рендал, Стивен Грэм, Марио де ла Роса, Ванесса Эйчхольц

О фильме:
Близится час битвы Хеллбоя с Кровавой королевой, жаждущей отомстить всему человечеству за века в заточении. Оказавшись в эпицентре столкновения миров людей и монстров, Хеллбою придется пройти через ад, чтобы предотвратить надвигающийся апокалипсис.

Страна: США
Студия: Summit Entertainment, Millennium Films, Campbell Grobman Films
Продолжительность: 02:01:02
Перевод(ы):
#1: Дублированный | Лицензия
#2: Профессиональный многоголосый | СВ Студия

Качество: BDRip 720p
Видео: MPEG-4 AVC, 1280x534, 8130 Kbit/s, 23.976 fps
Аудио #01: 48 kHz, DTS, 5.1, 1510 Kbps | Лицензия | RUS
Аудио #02: 48 kHz, AC3, 5.1, 640 Kbps | Лицензия | RUS
Аудио #03: 48 kHz, AC3, 2.0, 192 Kbps | СВ Студия | RUS
Аудио #04: 48 kHz, AC3, 5.1, 448 Kbps | Оригинал | ENG
Субтитры: Русские (Forced, 2 x full), английские

Авторизуйтесь для получения доступа к скачиванию

Нет аккаунта? Регистрация открыта и займёт меньше минуты

Вход Регистрация

General
Unique ID : 40596847238823058522012012449131365062 (0x1E8AAB1A974B5905B89496CC0C8382C6)
Complete name : D:\Video111\Hellboy.2019.Lic.BDRip.720p.seleZen.mkv
Format : Matroska
Format version : Version 4
File size : 9.23 GiB
Duration : 2 h 1 min
Overall bit rate : 10.9 Mb/s
Movie name : Hellboy 2019 from селезень
Encoded date : UTC 2019-10-05 04:50:04
Writing application : mkvmerge v22.0.0 ('At The End Of The World') 64-bit
Writing library : libebml v1.3.5 + libmatroska v1.4.8

Video
ID : 1
Format : AVC
Format/Info : Advanced Video Codec
Format profile : [email protected]
Format settings : CABAC / 12 Ref Frames
Format settings, CABAC : Yes
Format settings, Reference : 12 frames
Codec ID : V_MPEG4/ISO/AVC
Duration : 2 h 1 min
Bit rate : 8 130 kb/s
Width : 1 280 pixels
Height : 534 pixels
Display aspect ratio : 2.40:1
Frame rate mode : Constant
Frame rate : 23.976 (24000/1001) FPS
Color space : YUV
Chroma subsampling : 4:2:0
Bit depth : 8 bits
Scan type : Progressive
Bits/(Pixel*Frame) : 0.496
Stream size : 6.87 GiB (74%)
Title : iFT
Writing library : x264 core 155 r2867+74 66b5600 t_mod_Custom_2 [[email protected] X86_64]
Encoding settings : cabac=1 / ref=12 / deblock=1:-3:-3 / analyse=0x3:0x113 / me=umh / subme=11 / psy=1 / fade_compensate=0.00 / psy_rd=1.00:0.00 / mixed_ref=1 / me_range=32 / chroma_me=1 / trellis=2 / 8x8dct=1 / cqm=0 / deadzone=21,11 / fast_pskip=0 / chroma_qp_offset=-2 / threads=17 / lookahead_threads=2 / sliced_threads=0 / nr=0 / decimate=0 / interlaced=0 / bluray_compat=0 / constrained_intra=0 / fgo=0 / bframes=8 / b_pyramid=2 / b_adapt=2 / b_bias=0 / direct=3 / weightb=1 / open_gop=0 / weightp=2 / keyint=250 / keyint_min=23 / scenecut=40 / intra_refresh=0 / rc_lookahead=60 / rc=crf / mbtree=0 / crf=15.0000 / qcomp=0.60 / qpmin=0:0:0 / qpmax=69:69:69 / qpstep=4 / vbv_maxrate=30000 / vbv_bufsize=38000 / crf_max=0.0 / nal_hrd=none / filler=0 / ip_ratio=1.30 / pb_ratio=1.20 / aq=3:0.75 / aq-sensitivity=10.00 / aq-factor=1.00:1.00:1.00 / aq2=0 / aq3=0 / zones=754,4018,crf=13/19331,21155,crf=13/25218,26946,crf=13/32490,37220,crf=13/43288,43457,crf=13/69244,70244,crf=13/75576,79475,crf=13/88979,89363,crf=13/104031,104743,crf=13/104935,106999,crf=13/107239,108223,crf=13/111559,113647crf=13/115663,118399,crf=13/121639,123679,crf=13/127855,128287,crf=13
Language : English
Default : Yes
Forced : No
Color range : Limited
Color primaries : BT.709
Transfer characteristics : BT.709
Matrix coefficients : BT.709

Audio #1
ID : 2
Format : DTS
Format/Info : Digital Theater Systems
Codec ID : A_DTS
Duration : 2 h 1 min
Bit rate mode : Constant
Bit rate : 1 509 kb/s
Channel(s) : 6 channels
Channel layout : C L R Ls Rs LFE
Sampling rate : 48.0 kHz
Frame rate : 93.750 FPS (512 SPF)
Bit depth : 24 bits
Compression mode : Lossy
Stream size : 1.28 GiB (14%)
Title : Dub [License]
Language : Russian
Default : Yes
Forced : Yes

Audio #2
ID : 3
Format : AC-3
Format/Info : Audio Coding 3
Commercial name : Dolby Digital
Codec ID : A_AC3
Duration : 2 h 1 min
Bit rate mode : Constant
Bit rate : 640 kb/s
Channel(s) : 6 channels
Channel layout : L R C LFE Ls Rs
Sampling rate : 48.0 kHz
Frame rate : 31.250 FPS (1536 SPF)
Bit depth : 16 bits
Compression mode : Lossy
Stream size : 554 MiB (6%)
Title : Dub [License]
Language : Russian
Service kind : Complete Main
Default : No
Forced : No

Audio #3
ID : 4
Format : AC-3
Format/Info : Audio Coding 3
Commercial name : Dolby Digital
Codec ID : A_AC3
Duration : 2 h 0 min
Bit rate mode : Constant
Bit rate : 192 kb/s
Channel(s) : 2 channels
Channel layout : L R
Sampling rate : 48.0 kHz
Frame rate : 31.250 FPS (1536 SPF)
Bit depth : 16 bits
Compression mode : Lossy
Stream size : 166 MiB (2%)
Title : MVO [СВ Студия]
Language : Russian
Service kind : Complete Main
Default : No
Forced : No

Audio #4
ID : 5
Format : AC-3
Format/Info : Audio Coding 3
Commercial name : Dolby Digital
Codec ID : A_AC3
Duration : 2 h 1 min
Bit rate mode : Constant
Bit rate : 448 kb/s
Channel(s) : 6 channels
Channel layout : L R C LFE Ls Rs
Sampling rate : 48.0 kHz
Frame rate : 31.250 FPS (1536 SPF)
Bit depth : 16 bits
Compression mode : Lossy
Stream size : 388 MiB (4%)
Title : Original
Language : English
Service kind : Complete Main
Default : No
Forced : No

Text #1
ID : 6
Format : UTF-8
Codec ID : S_TEXT/UTF8
Codec ID/Info : UTF-8 Plain Text
Duration : 1 h 48 min
Bit rate : 1 b/s
Count of elements : 21
Stream size : 1.01 KiB (0%)
Title : Forced [seleZen]
Language : Russian
Default : Yes
Forced : Yes

Text #2
ID : 7
Format : UTF-8
Codec ID : S_TEXT/UTF8
Codec ID/Info : UTF-8 Plain Text
Duration : 2 h 0 min
Bit rate : 85 b/s
Count of elements : 1543
Stream size : 75.7 KiB (0%)
Title : Full [Enigma] (cens.)
Language : Russian
Default : No
Forced : No

Text #3
ID : 8
Format : UTF-8
Codec ID : S_TEXT/UTF8
Codec ID/Info : UTF-8 Plain Text
Duration : 2 h 0 min
Bit rate : 84 b/s
Count of elements : 1547
Stream size : 74.4 KiB (0%)
Title : Full [FOCS] (no cens.)
Language : Russian
Default : No
Forced : No

Text #4
ID : 9
Format : UTF-8
Codec ID : S_TEXT/UTF8
Codec ID/Info : UTF-8 Plain Text
Duration : 2 h 0 min
Bit rate : 53 b/s
Count of elements : 1528
Stream size : 46.7 KiB (0%)
Title : Full
Language : English
Default : No
Forced : No

Text #5
ID : 10
Format : UTF-8
Codec ID : S_TEXT/UTF8
Codec ID/Info : UTF-8 Plain Text
Duration : 2 h 0 min
Bit rate : 59 b/s
Count of elements : 1899
Stream size : 52.9 KiB (0%)
Title : SDH
Language : English
Default : No
Forced : No

Menu
00:00:00.000 : en:Chapter 01
00:08:54.284 : en:Chapter 02
00:14:41.714 : en:Chapter 03
00:22:34.853 : en:Chapter 04
00:30:12.602 : en:Chapter 05
00:35:48.730 : en:Chapter 06
00:43:50.461 : en:Chapter 07
00:53:17.611 : en:Chapter 08
01:01:09.791 : en:Chapter 09
01:09:24.786 : en:Chapter 10
01:17:32.606 : en:Chapter 11
01:26:07.579 : en:Chapter 12
01:28:37.896 : en:Chapter 13
01:37:58.456 : en:Chapter 14
01:45:49.969 : en:Chapter 15
01:51:06.660 : en:Chapter 16

Другие фильмы
У данной публикации пока нет комментариев.
Будь первым, оставь своё мнение в комментариях!
Информация
Посетители, находящиеся в группе Гости, не могут оставлять комментарии к данной публикации.
Самый популярный релиз недели
WEB-DL 1080p 5.57 Gb ...

Кино копилка
...
Какую тему вы используете?

Реклама
Последние комментарии
...

Dimanchez

Сегодня, 10:12

...

lomoenot

Вчера, 16:43

...

ooofly

Вчера, 08:40

...

Laska020489

Вчера, 03:27

...

zombitto

29 сентября 2022 16:25