0

Свет моей жизни / Light of My Life (2019) BDRip 1080p от селезень | D, P | iTunes

Информация о фильме
Название: Свет моей жизни
Оригинальное название: Light of My Life
Год выхода: 2019
Жанр: Драма, фантастика
Режиссер: Кейси Аффлек
В ролях: Кейси Аффлек, Анна Пнёвски, Том Бауэр, Элизабет Мосс, Хротгар Мэтьюз, Тимоти Уэббер, Монк Серрелл Фрид, Джесси Джеймс Пирс, Томми Кларк, Ллойд Каннингэм

О фильме: Восемь лет назад человечество поразил неизвестный вирус, убивший практически всех женщин на Земле. Мужчина с 12-летней дочерью, у которой оказался иммунитет к заболеванию, путешествует по лесам Северной Америки, лишь при большой надобности приближаясь к городам. Отец всеми силами пытается оградить девочку от опасностей, подстерегающих путников на каждом шагу.

Страна: Black Bear Pictures, Sea Change Media
Студия: США
Продолжительность: 01:59:54
Перевод(ы):
#1: Дублированный | iTunes
#2: Профессиональный многоголосый | HDRezka Studio

Качество: BDRip 1080p
Видео: MPEG-4 AVC, 1792x1080, 17.5 Mbit/s, 23.976 fps
Аудио #01: 48 kHz, AC3, 5.1, 384 Kbps | iTunes | RUS
Аудио #02: 48 kHz, AC3, 2.0, 192 Kbps | HDRezka Studio | RUS
Аудио #03: 48 kHz, AC3, 5.1, 640 Kbps | Оригинал | ENG
Субтитры: Русские (Full), английские

Авторизуйтесь для получения доступа к скачиванию

Нет аккаунта? Регистрация открыта и займёт меньше минуты

Вход Регистрация

General
Unique ID : 271264073233019120892895924870215717233 (0xCC138F65D5261D5E8EDE0EC629155171)
Complete name : D:\Video111\Light.of.My.Life.2019.BDRip.1080p.seleZen.mkv
Format : Matroska
Format version : Version 4
File size : 15.2 GiB
Duration : 1 h 59 min
Overall bit rate : 18.1 Mb/s
Movie name : Light of My Life 2019 from селезень
Encoded date : UTC 2019-10-03 11:50:17
Writing application : mkvmerge v22.0.0 ('At The End Of The World') 64-bit
Writing library : libebml v1.3.5 + libmatroska v1.4.8

Video
ID : 1
Format : AVC
Format/Info : Advanced Video Codec
Format profile : [email protected]
Format settings : CABAC / 4 Ref Frames
Format settings, CABAC : Yes
Format settings, Reference : 4 frames
Codec ID : V_MPEG4/ISO/AVC
Duration : 1 h 59 min
Bit rate : 17.5 Mb/s
Width : 1 792 pixels
Height : 1 080 pixels
Display aspect ratio : 5:3
Frame rate mode : Constant
Frame rate : 23.976 (24000/1001) FPS
Color space : YUV
Chroma subsampling : 4:2:0
Bit depth : 8 bits
Scan type : Progressive
Bits/(Pixel*Frame) : 0.378
Stream size : 14.7 GiB (97%)
Title : CHD
Writing library : x264 core 157 r2867+150 7e91e0e t_mod_Custom_2 [[email protected] X86_64]
Encoding settings : cabac=1 / ref=4 / deblock=1:-3:-3 / analyse=0x3:0x133 / me=umh / subme=11 / psy=1 / fade_compensate=0.00 / psy_rd=0.90:0.10 / mixed_ref=1 / me_range=64 / chroma_me=1 / trellis=2 / 8x8dct=1 / cqm=0 / deadzone=21,11 / fast_pskip=0 / chroma_qp_offset=-4 / threads=34 / lookahead_threads=5 / sliced_threads=0 / nr=0 / decimate=1 / interlaced=0 / bluray_compat=0 / constrained_intra=0 / fgo=0 / bframes=8 / b_pyramid=2 / b_adapt=2 / b_bias=0 / direct=3 / weightb=1 / open_gop=0 / weightp=2 / keyint=250 / keyint_min=23 / scenecut=40 / intra_refresh=0 / rc_lookahead=60 / rc=crf / mbtree=0 / crf=18.0000 / qcomp=0.70 / qpmin=0:0:0 / qpmax=69:69:69 / qpstep=4 / vbv_maxrate=35000 / vbv_bufsize=35000 / crf_max=0.0 / nal_hrd=none / filler=0 / ip_ratio=1.40 / pb_ratio=1.30 / aq=3:1.00 / aq-sensitivity=10.00 / aq-factor=1.00:1.00:1.00 / aq2=0 / aq3=0
Language : English
Default : Yes
Forced : No

Audio #1
ID : 2
Format : AC-3
Format/Info : Audio Coding 3
Commercial name : Dolby Digital
Codec ID : A_AC3
Duration : 1 h 59 min
Bit rate mode : Constant
Bit rate : 384 kb/s
Channel(s) : 6 channels
Channel layout : L R C LFE Ls Rs
Sampling rate : 48.0 kHz
Frame rate : 31.250 FPS (1536 SPF)
Bit depth : 16 bits
Compression mode : Lossy
Stream size : 329 MiB (2%)
Title : Dub [iTunes]
Language : Russian
Service kind : Complete Main
Default : Yes
Forced : Yes

Audio #2
ID : 3
Format : AC-3
Format/Info : Audio Coding 3
Commercial name : Dolby Digital
Codec ID : A_AC3
Duration : 1 h 59 min
Bit rate mode : Constant
Bit rate : 192 kb/s
Channel(s) : 2 channels
Channel layout : L R
Sampling rate : 48.0 kHz
Frame rate : 31.250 FPS (1536 SPF)
Bit depth : 16 bits
Compression mode : Lossy
Stream size : 165 MiB (1%)
Title : MVO [HDRezka Studio]
Language : Russian
Service kind : Complete Main
Default : No
Forced : No

Text #1
ID : 4
Format : UTF-8
Codec ID : S_TEXT/UTF8
Codec ID/Info : UTF-8 Plain Text
Duration : 1 h 55 min
Bit rate : 76 b/s
Count of elements : 1323
Stream size : 64.7 KiB (0%)
Title : Full [FOCS]
Language : Russian
Default : No
Forced : No

Text #2
ID : 5
Format : UTF-8
Codec ID : S_TEXT/UTF8
Codec ID/Info : UTF-8 Plain Text
Duration : 1 h 54 min
Bit rate : 49 b/s
Count of elements : 1254
Stream size : 41.2 KiB (0%)
Title : Full
Language : English
Default : No
Forced : No

Text #3
ID : 6
Format : UTF-8
Codec ID : S_TEXT/UTF8
Codec ID/Info : UTF-8 Plain Text
Duration : 1 h 54 min
Bit rate : 53 b/s
Count of elements : 1376
Stream size : 44.7 KiB (0%)
Title : SDH
Language : English
Default : No
Forced : No

Menu
00:00:00.000 : en:绗?01 绔?
00:12:13.107 : en:绗?02 绔?
00:18:44.040 : en:绗?03 绔?
00:26:57.115 : en:绗?04 绔?
00:35:30.879 : en:绗?05 绔?
00:43:29.982 : en:绗?06 绔?
00:48:57.560 : en:绗?07 绔?
00:58:51.862 : en:绗?08 绔?
01:09:07.435 : en:绗?09 绔?
01:15:28.733 : en:绗?10 绔?
01:21:34.306 : en:绗?11 绔?
01:26:47.702 : en:绗?12 绔?
01:32:53.985 : en:绗?13 绔?
01:38:16.349 : en:绗?14 绔?
01:47:58.847 : en:绗?15 绔?
01:55:18.745 : en:绗?16 绔?

Другие фильмы
У данной публикации пока нет комментариев.
Будь первым, оставь своё мнение в комментариях!
Информация
Посетители, находящиеся в группе Гости, не могут оставлять комментарии к данной публикации.
Самый популярный релиз недели
WEB-DL 1080p 5.57 Gb ...

Кино копилка
...
Какую тему вы используете?

Реклама
Последние комментарии
...

Dimanchez

Сегодня, 10:12

...

lomoenot

Вчера, 16:43

...

ooofly

Вчера, 08:40

...

Laska020489

Вчера, 03:27

...

zombitto

29 сентября 2022 16:25