0

Ма / Ma (2019) BDRip 1080p от селезень | Лицензия

Информация о фильме
Название: Ма
Оригинальное название: Ma
Год выхода: 2019
Жанр: Ужасы, триллер
Режиссер: Тейт Тейлор
В ролях: Октавия Спенсер, Диана Сильверс, Джульетт Льюис, МакКэйли Миллер, Кори Фогельманис, Джанни Паоло, Данте Браун, Таниэлл Уиверс, Доминик Бёрджесс, Хизер Мари Пэйт

О фильме: Все знают, что у МА самые крутые вечеринки в городе. Здесь всегда громкая музыка, и алкоголь льется рекой. В этом доме нет никаких ограничений, кроме одного: никогда не заходи в ее комнату. Добро пожаловать к МА.

Страна: США
Студия: Blumhouse Productions, Hurwitz Creative, Wyolah Films
Продолжительность: 01:39:21
Перевод: Дублированный | Лицензия

Качество: BDRip 1080p
Видео: MPEG-4 AVC, 1920x804, 15.8 Mbit/s, 23.976 fps
Аудио #01: 48 kHz, DTS, 5.1, 768 Kbps | Лицензия | RUS
Аудио #02: 48 kHz, AC3, 5.1, 448 Kbps | Лицензия | RUS
Аудио #03: 48 kHz, AC3, 5.1, 640 Kbps | Оригинал | ENG
Субтитры: Русские (Forced, full), английские

Авторизуйтесь для получения доступа к скачиванию

Нет аккаунта? Регистрация открыта и займёт меньше минуты

Вход Регистрация

General
Unique ID : 203060043069390589728141469363258173538 (0x98C3F1163D2EB0A0FA2E2996B01AA862)
Complete name : D:\Video111\Ma.2019.BDRip.1080p.seleZen.mkv
Format : Matroska
Format version : Version 4
File size : 12.3 GiB
Duration : 1 h 39 min
Overall bit rate : 17.7 Mb/s
Movie name : Ma 2019 from селезень
Encoded date : UTC 2019-10-03 00:21:45
Writing application : mkvmerge v22.0.0 ('At The End Of The World') 64-bit
Writing library : libebml v1.3.5 + libmatroska v1.4.8

Video
ID : 1
Format : AVC
Format/Info : Advanced Video Codec
Format profile : [email protected]
Format settings : CABAC / 5 Ref Frames
Format settings, CABAC : Yes
Format settings, Reference : 5 frames
Codec ID : V_MPEG4/ISO/AVC
Duration : 1 h 39 min
Bit rate : 15.8 Mb/s
Width : 1 920 pixels
Height : 804 pixels
Display aspect ratio : 2.40:1
Frame rate mode : Constant
Frame rate : 23.976 (24000/1001) FPS
Color space : YUV
Chroma subsampling : 4:2:0
Bit depth : 8 bits
Scan type : Progressive
Bits/(Pixel*Frame) : 0.427
Stream size : 11.0 GiB (89%)
Title : playHD
Writing library : x264 core 146 r2538 121396c
Encoding settings : cabac=1 / ref=5 / deblock=1:-3:-3 / analyse=0x3:0x133 / me=umh / subme=10 / psy=1 / psy_rd=1.00:0.00 / mixed_ref=1 / me_range=32 / chroma_me=1 / trellis=2 / 8x8dct=1 / cqm=0 / deadzone=21,11 / fast_pskip=0 / chroma_qp_offset=-2 / threads=6 / lookahead_threads=1 / sliced_threads=0 / nr=0 / decimate=0 / interlaced=0 / bluray_compat=0 / constrained_intra=0 / bframes=9 / b_pyramid=2 / b_adapt=2 / b_bias=0 / direct=3 / weightb=1 / open_gop=0 / weightp=2 / keyint=250 / keyint_min=23 / scenecut=40 / intra_refresh=0 / rc=crf / mbtree=0 / crf=16.7 / qcomp=0.60 / qpmin=0 / qpmax=69 / qpstep=4 / ip_ratio=1.40 / pb_ratio=1.25 / aq=3:0.85
Language : English
Default : Yes
Forced : No

Audio #1
ID : 2
Format : DTS
Format/Info : Digital Theater Systems
Codec ID : A_DTS
Duration : 1 h 39 min
Bit rate mode : Constant
Bit rate : 768 kb/s
Channel(s) : 6 channels
Channel layout : C L R Ls Rs LFE
Sampling rate : 48.0 kHz
Frame rate : 93.750 FPS (512 SPF)
Bit depth : 24 bits
Compression mode : Lossy
Stream size : 546 MiB (4%)
Title : Dub [License]
Language : Russian
Default : Yes
Forced : Yes

Audio #2
ID : 3
Format : AC-3
Format/Info : Audio Coding 3
Commercial name : Dolby Digital
Codec ID : A_AC3
Duration : 1 h 39 min
Bit rate mode : Constant
Bit rate : 448 kb/s
Channel(s) : 6 channels
Channel layout : L R C LFE Ls Rs
Sampling rate : 48.0 kHz
Frame rate : 31.250 FPS (1536 SPF)
Bit depth : 16 bits
Compression mode : Lossy
Stream size : 318 MiB (3%)
Title : Dub [License]
Language : Russian
Service kind : Complete Main
Default : No
Forced : No

Audio #3
ID : 4
Format : AC-3
Format/Info : Audio Coding 3
Commercial name : Dolby Digital
Codec ID : A_AC3
Duration : 1 h 39 min
Bit rate mode : Constant
Bit rate : 640 kb/s
Channel(s) : 6 channels
Channel layout : L R C LFE Ls Rs
Sampling rate : 48.0 kHz
Frame rate : 31.250 FPS (1536 SPF)
Bit depth : 16 bits
Compression mode : Lossy
Stream size : 455 MiB (4%)
Title : Original
Language : English
Service kind : Complete Main
Default : No
Forced : No

Text #1
ID : 5
Format : UTF-8
Codec ID : S_TEXT/UTF8
Codec ID/Info : UTF-8 Plain Text
Duration : 1 h 25 min
Bit rate : 0 b/s
Count of elements : 6
Stream size : 203 Bytes (0%)
Title : Forced
Language : Russian
Default : Yes
Forced : Yes

Text #2
ID : 6
Format : UTF-8
Codec ID : S_TEXT/UTF8
Codec ID/Info : UTF-8 Plain Text
Duration : 1 h 29 min
Bit rate : 94 b/s
Count of elements : 1463
Stream size : 61.9 KiB (0%)
Title : Full
Language : Russian
Default : No
Forced : No

Text #3
ID : 7
Format : UTF-8
Codec ID : S_TEXT/UTF8
Codec ID/Info : UTF-8 Plain Text
Duration : 1 h 38 min
Bit rate : 62 b/s
Count of elements : 1401
Stream size : 45.3 KiB (0%)
Title : Full
Language : English
Default : No
Forced : No

Text #4
ID : 8
Format : UTF-8
Codec ID : S_TEXT/UTF8
Codec ID/Info : UTF-8 Plain Text
Duration : 1 h 38 min
Bit rate : 68 b/s
Count of elements : 1533
Stream size : 49.7 KiB (0%)
Title : SDH
Language : English
Default : No
Forced : No

Menu
00:00:00.000 : en:Chapter 01
00:05:07.807 : en:Chapter 02
00:10:42.350 : en:Chapter 03
00:15:52.743 : en:Chapter 04
00:19:27.166 : en:Chapter 05
00:25:44.209 : en:Chapter 06
00:30:02.801 : en:Chapter 07
00:35:02.392 : en:Chapter 08
00:40:19.792 : en:Chapter 09
00:45:13.836 : en:Chapter 10
00:50:08.964 : en:Chapter 11
00:54:34.688 : en:Chapter 12
00:57:49.675 : en:Chapter 13
01:02:11.019 : en:Chapter 14
01:06:09.299 : en:Chapter 15
01:11:45.301 : en:Chapter 16
01:16:23.829 : en:Chapter 17
01:20:30.868 : en:Chapter 18
01:25:23.327 : en:Chapter 19
01:32:41.473 : en:Chapter 20

Другие фильмы
У данной публикации пока нет комментариев.
Будь первым, оставь своё мнение в комментариях!
Информация
Посетители, находящиеся в группе Гости, не могут оставлять комментарии к данной публикации.
Самый популярный релиз недели
WEB-DL 1080p 5.57 Gb ...

Кино копилка
...
Какую тему вы используете?

Реклама
Последние комментарии
...

Dimanchez

Сегодня, 10:12

...

lomoenot

Вчера, 16:43

...

ooofly

Вчера, 08:40

...

Laska020489

Вчера, 03:27

...

zombitto

29 сентября 2022 16:25