+3

Остров Бергмана / Bergman Island (2021) BDRip-AVC от DoMiNo & селезень | D

Информация о фильме
Название: Остров Бергмана
Оригинальное название: Bergman Island
Год выхода: 2021
Жанр: Драма
Режиссер: Миа Хансен-Лёв
В ролях: Миа Васиковска, Тим Рот, Вики Крипс, Андерс Даниелсен Лье, Юэль Спира, Гейб Клингер, Вутер Хендрикс, Мэттью Лесснер, Клара Штраух, Оскар Рейс

О фильме:
Фильм рассказывает об американской паре кинематографистов, которые отправляются на остров, вдохновлявший Ингмара Бергмана, чтобы поработать там над сценариями своих будущих картин. Лето проходит, тексты пишутся, а грань между реальностью и вымыслом размывается на фоне диких островных пейзажей.

Страна: Франция, Бельгия, Германия, Швеция, Мексика
Студия: 0 Films, arte France Cinéma, Barnstormer Productions
Продолжительность: 01:53:00
Перевод: Дублированный | Марафон
Субтитры: Русские (Full), английские

Файл
Формат: Matroska
Качество: BDRip-AVC
Видео: 720×302 at 24.000 fps, [email protected], ~826 kbps
Аудио: AAC, 2 ch, ~96 kbps — | Русский | Остров Бергмана / Bergman Island (2021) BDRip-AVC от DoMiNo & селезень | D
Формат субтитров: softsub (SRT)

Остров Бергмана / Bergman Island (2021) BDRip-AVC от DoMiNo & селезень | D

Авторизуйтесь для получения доступа к скачиванию

Нет аккаунта? Регистрация открыта и займёт меньше минуты

Вход Регистрация

x264 [info]: frame I:1047 Avg QP:16.71 size: 34280
x264 [info]: frame P:38527 Avg QP:19.90 size: 9474
x264 [info]: frame B:123170 Avg QP:21.21 size: 2407
x264 [info]: consecutive B-frames: 3,3% 4,7% 10,3% 20,3% 17,0% 30,1% 5,2% 2,7% 2,3% 1,7% 0,5% 0,7% 1,1%

General
Unique ID : 288566127593686433990854334681976221837 (0xD917D08A1328AFB78BB31E795DD5308D)
Complete name : D:Bergman.Island.2021.BDRip.x264.seleZen.mkv
Format : Matroska
Format version : Version 4
File size : 743 MiB
Duration : 1 h 53 min
Overall bit rate : 920 kb/s
Movie name : Bergman.Island.2021.BDRip.x264.seleZen
Encoded date : UTC 23.09.2022 14:49:28
Writing application : mkvmerge v70.0.0 ('Caught A Lite Sneeze') 64-bit
Writing library : libebml v1.4.2 + libmatroska v1.6.4
Cover : Yes
Attachments : cover.jpg / small_cover.jpg

Video
ID : 1
Format : AVC
Format/Info : Advanced Video Codec
Format profile : [email protected]
Format settings : CABAC / 14 Ref Frames
Format settings, CABAC : Yes
Format settings, Reference : 14 frames
Codec ID : V_MPEG4/ISO/AVC
Duration : 1 h 53 min
Bit rate : 826 kb/s
Width : 720 pixels
Height : 302 pixels
Display aspect ratio : 2.40:1
Frame rate mode : Constant
Frame rate : 24.000 FPS
Color space : YUV
Chroma subsampling : 4:2:0
Bit depth : 8 bits
Scan type : Progressive
Bits/(Pixel*Frame) : 0.158
Stream size : 665 MiB (89%)
Title : -=DoMiNo=-
Writing library : x264 core 164 by -=DoMiNo=-
Encoding settings : cabac=1 / ref=14 / deblock=1:-3:-2 / analyse=0×3:0×133 / me=umh / subme=10 / psy=1 / psy_rd=1.02:0.03 / mixed_ref=1 / me_range=32 / chroma_me=1 / trellis=2 / 8×8dct=1 / cqm=0 / deadzone=21,11 / fast_pskip=0 / chroma_qp_offset=-3 / threads=16 / lookahead_threads=2 / sliced_threads=0 / nr=0 / decimate=0 / interlaced=0 / bluray_compat=0 / constrained_intra=0 / bframes=12 / b_pyramid=2 / b_adapt=2 / b_bias=0 / direct=3 / weightb=1 / open_gop=0 / weightp=2 / keyint=250 / keyint_min=24 / scenecut=40 / intra_refresh=0 / rc_lookahead=60 / rc=2pass / mbtree=0 / bitrate=826 / ratetol=1.0 / qcomp=0.70 / qpmin=0 / qpmax=69 / qpstep=4 / cplxblur=20.0 / qblur=0.5 / vbv_maxrate=50000 / vbv_bufsize=62500 / nal_hrd=none / filler=0 / ip_ratio=1.40 / pb_ratio=1.30 / aq=3:0.80
Language : English
Default : Yes
Forced : No
Color range : Limited
Color primaries : BT.709
Transfer characteristics : BT.709
Matrix coefficients : BT.709

Audio
ID : 2
Format : AAC LC SBR
Format/Info : Advanced Audio Codec Low Complexity with Spectral Band Replication
Commercial name : HE-AAC
Format settings : Explicit
Codec ID : A_AAC-2
Duration : 1 h 53 min
Bit rate : 96.0 kb/s
Channel (s) : 2 channels
Channel layout : L R
Sampling rate : 48.0 kHz
Frame rate : 23.438 FPS (2048 SPF)
Compression mode : Lossy
Stream size : 76.5 MiB (10%)
Title : DUB
Language : Russian
Default : Yes
Forced : Yes

Text #1
ID : 3
Format : UTF-8
Codec ID : S_TEXT/UTF8
Codec ID/Info : UTF-8 Plain Text
Duration : 1 h 48 min
Bit rate : 63 b/s
Count of elements : 1170
Stream size : 50.1 KiB (0%)
Title : Full
Language : Russian
Default : No
Forced : No

Text #2
ID : 4
Format : UTF-8
Codec ID : S_TEXT/UTF8
Codec ID/Info : UTF-8 Plain Text
Duration : 1 h 50 min
Bit rate : 46 b/s
Count of elements : 1257
Stream size : 37.7 KiB (0%)
Title : Full
Language : English
Default : No
Forced : No

Menu
00:00:00.000 : en:Глава 01
00:11:49.500 : en:Глава 02
00:22:01.583 : en:Глава 03
00:33:55.625 : en:Глава 04
00:43:45.708 : en:Глава 05
00:53:15.583 : en:Глава 06
01:06:33.625 : en:Глава 07
01:15:09.333 : en:Глава 08
01:26:41.917 : en:Глава 09
01:37:13.042 : en:Глава 10
01:49:10.542 : en:Глава 11

Другие фильмы
У данной публикации пока нет комментариев.
Будь первым, оставь своё мнение в комментариях!
Информация
Посетители, находящиеся в группе Гости, не могут оставлять комментарии к данной публикации.
Самый популярный релиз недели
WEB-DL 1080p 5.57 Gb ...

Кино копилка
...
Какую тему вы используете?

Реклама
Последние комментарии
...

Dimanchez

Сегодня, 10:12

...

lomoenot

Вчера, 16:43

...

ooofly

Вчера, 08:40

...

Laska020489

Вчера, 03:27

...

zombitto

29 сентября 2022 16:25