+5

Тор: Любовь и гром / Thor: Love and Thunder (2022) BDRip-AVC от DoMiNo & селезень | D

Информация о фильме
Название: Тор: Любовь и гром
Оригинальное название: Thor: Love and Thunder
Год выхода: 2022
Жанр: фантастика, фэнтези, боевик, мелодрама, комедия, приключения, музыка
Режиссер: Тайка Вайтити
В ролях: Крис Хемсворт, Натали Портман, Крис Прэтт, Тайка Вайтити, Сэм Нилл, Брэдли Купер, Мелисса Маккарти, Кристиан Бэйл, Карен Гиллан, Мэтт Дэймон

О фильме:
Не успев насладиться заслуженным отдыхом, Тор встречает нового врага в лице Горра Убийцы богов, жаждущего истребить все божества во вселенной. Чтобы противостоять ему, Тор объединяется с Валькирией, Коргом и своей бывшей девушкой Джейн Фостер, ставшей Могучим Тором. Вместе они должны остановить злодея, пока не стало слишком поздно.

Страна: Австралия, США
Студия: Fox Studios Australia, Marvel Studios Inc., Walt Disney Pictures
Продолжительность: 01:58:44
Перевод: Дублированный | Лицензия
Субтитры: Русские (Forced, 2 x Full), английские

Файл
Формат: Matroska
Качество: BDRip-AVC
Видео: 1024×428 at 23.976 fps, [email protected], ~1725 kbps
Аудио 1: AC3, 6 ch, ~448 kbps — | Русский | Тор: Любовь и гром / Thor: Love and Thunder (2022) BDRip-AVC от DoMiNo & селезень | D | Лицензия
Аудио 2: AC3, 6 ch, ~448 kbps — | Английский | | Оригинал
Формат субтитров: softsub (SRT)

Тор: Любовь и гром / Thor: Love and Thunder (2022) BDRip-AVC от DoMiNo & селезень | D

Авторизуйтесь для получения доступа к скачиванию

Нет аккаунта? Регистрация открыта и займёт меньше минуты

Вход Регистрация

x264 [info]: frame I:1777 Avg QP:15.50 size: 57350
x264 [info]: frame P:40390 Avg QP:17.51 size: 18871
x264 [info]: frame B:128649 Avg QP:19.83 size: 5225
x264 [info]: consecutive B-frames: 3,0% 4,9% 10,3% 22,8% 17,3% 34,7% 4,6% 1,0% 0,8% 0,2% 0,0% 0,1% 0,5%

General
Unique ID : 159359322778575297912085314693113337626 (0×77E37D39F5D19237900A4D46B404571A)
Complete name : D:Thor.Love.and.Thunder.2022.DUB.BDRip.x264.seleZen.mkv
Format : Matroska
Format version : Version 4
File size : 2.18 GiB
Duration : 1 h 58 min
Overall bit rate : 2 624 kb/s
Movie name : Thor.Love.and.Thunder.2022.DUB.BDRip.x264.seleZen
Encoded date : UTC 23.09.2022 13:27:30
Writing application : mkvmerge v70.0.0 ('Caught A Lite Sneeze') 64-bit
Writing library : libebml v1.4.2 + libmatroska v1.6.4
Cover : Yes
Attachments : cover.jpg / small_cover.jpg

Video
ID : 1
Format : AVC
Format/Info : Advanced Video Codec
Format profile : [email protected]
Format settings : CABAC / 14 Ref Frames
Format settings, CABAC : Yes
Format settings, Reference : 14 frames
Codec ID : V_MPEG4/ISO/AVC
Duration : 1 h 58 min
Bit rate : 1 725 kb/s
Width : 1 024 pixels
Height : 428 pixels
Display aspect ratio : 2.40:1
Frame rate mode : Constant
Frame rate : 23.976 (24000/1001) FPS
Color space : YUV
Chroma subsampling : 4:2:0
Bit depth : 8 bits
Scan type : Progressive
Bits/(Pixel*Frame) : 0.164
Stream size : 1.43 GiB (66%)
Title : -=DoMiNo=-
Writing library : x264 core 164 by -=DoMiNo=-
Encoding settings : cabac=1 / ref=14 / deblock=1:-3:-2 / analyse=0×3:0×133 / me=umh / subme=10 / psy=1 / psy_rd=1.02:0.05 / mixed_ref=1 / me_range=32 / chroma_me=1 / trellis=2 / 8×8dct=1 / cqm=0 / deadzone=21,11 / fast_pskip=1 / chroma_qp_offset=-3 / threads=17 / lookahead_threads=3 / sliced_threads=0 / nr=0 / decimate=1 / interlaced=0 / bluray_compat=0 / constrained_intra=0 / bframes=12 / b_pyramid=2 / b_adapt=2 / b_bias=0 / direct=1 / weightb=1 / open_gop=0 / weightp=2 / keyint=250 / keyint_min=23 / scenecut=40 / intra_refresh=0 / rc_lookahead=60 / rc=crf / mbtree=0 / crf=18.0 / qcomp=0.70 / qpmin=0 / qpmax=69 / qpstep=4 / vbv_maxrate=50000 / vbv_bufsize=62500 / crf_max=0.0 / nal_hrd=none / filler=0 / ip_ratio=1.40 / pb_ratio=1.30 / aq=3:0.80
Language : English
Default : Yes
Forced : No

Audio #1
ID : 2
Format : AC-3
Format/Info : Audio Coding 3
Commercial name : Dolby Digital
Codec ID : A_AC3
Duration : 1 h 58 min
Bit rate mode : Constant
Bit rate : 448 kb/s
Channel (s) : 6 channels
Channel layout : L R C LFE Ls Rs
Sampling rate : 48.0 kHz
Frame rate : 31.250 FPS (1536 SPF)
Compression mode : Lossy
Stream size : 380 MiB (17%)
Title : Dub
Language : Russian
Service kind : Complete Main
Default : Yes
Forced : Yes

Audio #2
ID : 3
Format : AC-3
Format/Info : Audio Coding 3
Commercial name : Dolby Digital
Codec ID : A_AC3
Duration : 1 h 58 min
Bit rate mode : Constant
Bit rate : 448 kb/s
Channel (s) : 6 channels
Channel layout : L R C LFE Ls Rs
Sampling rate : 48.0 kHz
Frame rate : 31.250 FPS (1536 SPF)
Compression mode : Lossy
Stream size : 380 MiB (17%)
Title : Original
Language : English
Service kind : Complete Main
Default : No
Forced : No

Text #1
ID : 4
Format : UTF-8
Codec ID : S_TEXT/UTF8
Codec ID/Info : UTF-8 Plain Text
Duration : 1 h 43 min
Bit rate : 1 b/s
Count of elements : 18
Stream size : 787 Bytes (0%)
Title : Forced
Language : Russian
Default : Yes
Forced : No

Text #2
ID : 5
Format : UTF-8
Codec ID : S_TEXT/UTF8
Codec ID/Info : UTF-8 Plain Text
Duration : 1 h 57 min
Bit rate : 82 b/s
Count of elements : 1616
Stream size : 71.5 KiB (0%)
Title : Full [license]
Language : Russian
Default : No
Forced : No

Text #3
ID : 6
Format : UTF-8
Codec ID : S_TEXT/UTF8
Codec ID/Info : UTF-8 Plain Text
Duration : 1 h 57 min
Bit rate : 94 b/s
Count of elements : 1615
Stream size : 81.6 KiB (0%)
Title : Full [Cool Story Blog]
Language : Russian
Default : No
Forced : No

Text #4
ID : 7
Format : UTF-8
Codec ID : S_TEXT/UTF8
Codec ID/Info : UTF-8 Plain Text
Duration : 1 h 57 min
Bit rate : 56 b/s
Count of elements : 1800
Stream size : 48.8 KiB (0%)
Title : Full
Language : English
Default : No
Forced : No

Text #5
ID : 8
Format : UTF-8
Codec ID : S_TEXT/UTF8
Codec ID/Info : UTF-8 Plain Text
Duration : 1 h 58 min
Bit rate : 70 b/s
Count of elements : 2281
Stream size : 61.0 KiB (0%)
Title : SDH
Language : English
Default : No
Forced : No

Menu
00:00:00.000 : en:Chapter 01
00:06:45.155 : en:Chapter 02
00:10:11.319 : en:Chapter 03
00:14:23.780 : en:Chapter 04
00:18:13.426 : en:Chapter 05
00:20:59.508 : en:Chapter 06
00:21:47.806 : en:Chapter 07
00:27:00.994 : en:Chapter 08
00:28:16.194 : en:Chapter 09
00:29:52.249 : en:Chapter 10
00:31:24.508 : en:Chapter 11
00:35:15.113 : en:Chapter 12
00:38:40.443 : en:Chapter 13
00:45:37.443 : en:Chapter 14
00:53:04.223 : en:Chapter 15
01:06:19.392 : en:Chapter 16
01:14:16.911 : en:Chapter 17
01:24:35.821 : en:Chapter 18
01:28:31.181 : en:Chapter 19
01:30:19.998 : en:Chapter 20
01:34:17.652 : en:Chapter 21
01:38:12.678 : en:Chapter 22
01:44:45.529 : en:Chapter 23
01:48:17.616 : en:Chapter 24
01:50:03.430 : en:Chapter 25
01:51:14.710 : en:Chapter 26

Другие фильмы
У данной публикации пока нет комментариев.
Будь первым, оставь своё мнение в комментариях!
Информация
Посетители, находящиеся в группе Гости, не могут оставлять комментарии к данной публикации.
Самый популярный релиз недели
WEB-DL 1080p 5.57 Gb ...

Кино копилка
...
Какую тему вы используете?

Реклама
Последние комментарии
...

Dimanchez

Сегодня, 10:12

...

lomoenot

Вчера, 16:43

...

ooofly

Вчера, 08:40

...

Laska020489

Вчера, 03:27

...

zombitto

29 сентября 2022 16:25