+10

Тор: Любовь и гром / Thor: Love and Thunder (2022) UHD BDRemux 2160p от селезень | 4K | HDR | D

Информация о фильме
Название: Тор: Любовь и гром
Оригинальное название: Thor: Love and Thunder
Год выхода: 2022
Жанр: фантастика, фэнтези, боевик, мелодрама, комедия, приключения
Режиссер: Тайка Вайтити
В ролях: Крис Хемсворт, Натали Портман, Кристиан Бэйл, Тесса Томпсон, Тайка Вайтити, Рассел Кроу, Джейми Александер, Крис Пратт, Дэйв Батиста, Карен Гиллан

О фильме: Джейн Фостер берет на себя обязанности Бога-громовержца и становится обладательницей молота Мьёльнира.

Страна: Австралия, США
Студия: Marvel Studios Inc., Walt Disney Pictures
Продолжительность: 01:58:43
Перевод: Дублированный | Лицензия

Качество: BDRemux 2160p
Видео: 3840x2160 at 23.976 fps, MPEG-H HEVC HDR ~ 51100 kbps avg
Аудио #01: 48 kHz, AC3, 5.1, 448 Kbps | Дублированный | Лицензия | RUS |Тор: Любовь и гром / Thor: Love and Thunder (2022) UHD BDRemux 2160p от селезень | 4K | HDR | D
Аудио #02: 48 kHz, TrueHD, 7.1, 4691 Kbps | Оригинал | ENG |
Аудио #03: 48 kHz, AC3, 5.1, 640 Kbps | Оригинал | ENG |
Субтитры: Русские (Forced, 2 x Full), английские

Тор: Любовь и гром / Thor: Love and Thunder (2022) UHD BDRemux 2160p от селезень | 4K | HDR | D

Авторизуйтесь для получения доступа к скачиванию

Нет аккаунта? Регистрация открыта и займёт меньше минуты

Вход Регистрация

General
Unique ID : 40015368858761138270721252122306660787 (0x1E1AAE019C5D62E59582F077964DC9B3)
Complete name : E:\Video1\Thor.Love.and.Thunder.2022.D.BDREMUX.2160p.HDR.seleZen.mkv
Format : Matroska
Format version : Version 4
File size : 47.2 GiB
Duration : 1 h 58 min
Overall bit rate mode : Variable
Overall bit rate : 56.9 Mb/s
Movie name : Thor Love and Thunder 2022 from seleZen
Encoded date : UTC 2022-09-23 13:06:55
Writing application : mkvmerge v59.0.0 ('Shining Star') 64-bit
Writing library : libebml v1.4.2 + libmatroska v1.6.4

Video
ID : 1
Format : HEVC
Format/Info : High Efficiency Video Coding
Format profile : Main [email protected]@High
HDR format : SMPTE ST 2086, HDR10 compatible
Codec ID : V_MPEGH/ISO/HEVC
Duration : 1 h 58 min
Bit rate : 51.1 Mb/s
Width : 3 840 pixels
Height : 2 160 pixels
Display aspect ratio : 16:9
Frame rate mode : Constant
Frame rate : 23.976 (24000/1001) FPS
Color space : YUV
Chroma subsampling : 4:2:0 (Type 2)
Bit depth : 10 bits
Bits/(Pixel*Frame) : 0.257
Stream size : 42.4 GiB (90%)
Language : English
Default : Yes
Forced : No
Color range : Limited
Color primaries : BT.2020
Transfer characteristics : PQ
Matrix coefficients : BT.2020 non-constant
Mastering display color pri : BT.2020
Mastering display luminance : min: 0.0050 cd/m2, max: 1000 cd/m2

Audio #1
ID : 2
Format : AC-3
Format/Info : Audio Coding 3
Commercial name : Dolby Digital
Codec ID : A_AC3
Duration : 1 h 58 min
Bit rate mode : Constant
Bit rate : 448 kb/s
Channel(s) : 6 channels
Channel layout : L R C LFE Ls Rs
Sampling rate : 48.0 kHz
Frame rate : 31.250 FPS (1536 SPF)
Compression mode : Lossy
Stream size : 380 MiB (1%)
Title : Dub
Language : Russian
Service kind : Complete Main
Default : Yes
Forced : Yes

Audio #2
ID : 3
Format : MLP FBA 16-ch
Format/Info : Meridian Lossless Packing FBA with 16-channel presentation
Commercial name : Dolby TrueHD with Dolby Atmos
Codec ID : A_TRUEHD
Duration : 1 h 58 min
Bit rate mode : Variable
Bit rate : 4 691 kb/s
Maximum bit rate : 8 409 kb/s
Channel(s) : 8 channels
Channel layout : L R C LFE Ls Rs Lb Rb
Sampling rate : 48.0 kHz
Frame rate : 1 200.000 FPS (40 SPF)
Compression mode : Lossless
Stream size : 3.89 GiB (8%)
Title : Original
Language : English
Default : No
Forced : No
Number of dynamic objects : 13
Bed channel count : 1 channel
Bed channel configuration : LFE

Audio #3
ID : 4
Format : AC-3
Format/Info : Audio Coding 3
Commercial name : Dolby Digital
Codec ID : A_AC3
Duration : 1 h 58 min
Bit rate mode : Constant
Bit rate : 640 kb/s
Channel(s) : 6 channels
Channel layout : L R C LFE Ls Rs
Sampling rate : 48.0 kHz
Frame rate : 31.250 FPS (1536 SPF)
Compression mode : Lossy
Stream size : 544 MiB (1%)
Language : English
Service kind : Complete Main
Default : No
Forced : No

Text #1
ID : 5
Format : UTF-8
Codec ID : S_TEXT/UTF8
Codec ID/Info : UTF-8 Plain Text
Duration : 1 h 43 min
Bit rate : 1 b/s
Frame rate : 0.003 FPS
Count of elements : 18
Stream size : 787 Bytes (0%)
Title : Forced
Language : Russian
Default : Yes
Forced : Yes

Text #2
ID : 6
Format : UTF-8
Codec ID : S_TEXT/UTF8
Codec ID/Info : UTF-8 Plain Text
Duration : 1 h 57 min
Bit rate : 82 b/s
Frame rate : 0.229 FPS
Count of elements : 1616
Stream size : 71.5 KiB (0%)
Title : Full [license]
Language : Russian
Default : No
Forced : No

Text #3
ID : 7
Format : UTF-8
Codec ID : S_TEXT/UTF8
Codec ID/Info : UTF-8 Plain Text
Duration : 1 h 57 min
Bit rate : 94 b/s
Frame rate : 0.228 FPS
Count of elements : 1615
Stream size : 81.6 KiB (0%)
Title : Full [Cool Story Blog]
Language : Russian
Default : No
Forced : No

Text #4
ID : 8
Format : UTF-8
Codec ID : S_TEXT/UTF8
Codec ID/Info : UTF-8 Plain Text
Duration : 1 h 57 min
Bit rate : 56 b/s
Frame rate : 0.255 FPS
Count of elements : 1800
Stream size : 48.8 KiB (0%)
Title : Full
Language : English
Default : No
Forced : No

Text #5
ID : 9
Format : UTF-8
Codec ID : S_TEXT/UTF8
Codec ID/Info : UTF-8 Plain Text
Duration : 1 h 58 min
Bit rate : 70 b/s
Frame rate : 0.321 FPS
Count of elements : 2281
Stream size : 61.0 KiB (0%)
Title : SDH
Language : English
Default : No
Forced : No

Menu
00:00:00.000 : Chapter 1
00:06:45.154 : Chapter 2
00:10:11.319 : Chapter 3
00:14:23.904 : Chapter 4
00:18:13.425 : Chapter 5
00:20:59.508 : Chapter 6
00:21:47.806 : Chapter 7
00:27:00.994 : Chapter 8
00:28:16.194 : Chapter 9
00:29:52.248 : Chapter 10
00:31:24.507 : Chapter 11
00:35:15.113 : Chapter 12
00:38:40.443 : Chapter 13
00:45:37.443 : Chapter 14
00:53:04.222 : Chapter 15
01:06:18.807 : Chapter 16
01:14:16.910 : Chapter 17
01:24:35.820 : Chapter 18
01:28:31.180 : Chapter 19
01:30:19.622 : Chapter 20
01:34:17.652 : Chapter 21
01:38:12.678 : Chapter 22
01:44:44.778 : Chapter 23
01:48:17.616 : Chapter 24
01:50:03.221 : Chapter 25
01:51:14.542 : Chapter 26

Другие фильмы
Комментарии:

...
dembell56 25 сентября 2022 21:20
0

Мне бы  6,75 gb

 

...
syla 23 сентября 2022 17:31
+2

версия в 4K будет с IMAX?

Информация
Посетители, находящиеся в группе Гости, не могут оставлять комментарии к данной публикации.
Самый популярный релиз недели
WEB-DL 1080p 5.57 Gb ...

Кино копилка
...
Какую тему вы используете?

Реклама
Последние комментарии
...

Dimanchez

Сегодня, 10:12

...

lomoenot

Вчера, 16:43

...

ooofly

Вчера, 08:40

...

Laska020489

Вчера, 03:27

...

zombitto

29 сентября 2022 16:25