+3

Лавка чудес / Mr. Magorium's Wonder Emporium (2007) WEB-DLRip-AVC от DoMiNo & селезень | D | Open Matte

Информация о фильме
Название: Лавка чудес
Оригинальное название: Mr. Magorium’s Wonder Emporium
Год выхода: 2007
Жанр: комедия, фэнтези, семейный
Режиссер: Зак Хелм
В ролях: Дастин Хоффман, Натали Портман, Джейсон Бэйтман, Зак Миллз, Джонатан Поттс, Мэтт Бэрэм, Марша Беннетт, Пола Бодро, Джэйд Коэн, Дэш Гранди, Тед Лудзик, Ребекка Нортан, Дэвид Рендолл, Беатрис Юсте

О фильме:
Эксцентричный владелец волшебного магазина игрушек Эдвард Магориум, собирается отойти от дел по состоянию здоровья — все-таки стукнул 243 день рождения. Мистер Магориум за 114 лет управления магазином сумел превратить его в самое волшебное и красочное место на земле, где всегда был слышан детский смех. Он решает доверить свое необычно предприятие служащей-менеджеру Молли Махоуни. Молли — 25-летняя девушка. И хотя ее жизнь полна радости и сюрпризов, девушка страдает от депрессии. В итоге ее подавленное состояние души приводит к тому, что некогда шумный и оживленный магазин превращается в серое и унылое место, находящееся на грани закрытия… история только начинается!

Страна: США, Канада
Продолжительность: 01:34:32
Перевод: Профессиональный (дублированный)
Субтитры: Русские, английские

Файл
Формат: Matroska
Качество: WEB-DLRip-AVC | Open Matte
Видео: 1024×576 at 23.976 fps, [email protected], ~3145 kbps
Аудио 1: AC3, 6 ch, ~448 kbps — | Русский | Лавка чудес / Mr. Magorium's Wonder Emporium (2007) WEB-DLRip-AVC от DoMiNo & селезень | D | Open Matte
Аудио 2: AC3, 6 ch, ~448 kbps — | Английский |
Формат субтитров: softsub (SRT)

Лавка чудес / Mr. Magorium's Wonder Emporium (2007) WEB-DLRip-AVC от DoMiNo & селезень | D | Open Matte

Авторизуйтесь для получения доступа к скачиванию

Нет аккаунта? Регистрация открыта и займёт меньше минуты

Вход Регистрация

x264 [info]: frame I:1359 Avg QP:16.95 size: 99995
x264 [info]: frame P:32935 Avg QP:18.54 size: 31082
x264 [info]: frame B:101669 Avg QP:20.72 size: 10520
x264 [info]: consecutive B-frames: 3,4% 4,3% 11,5% 25,0% 16,2% 33,1% 4,4% 1,0% 0,5% 0,1% 0,5%

General
Unique ID : 99880867541374977916003287070672202108 (0×4B245AF953C25F9D577132529834A97 °C)
Complete name : D:Mr.Magorium’s.Wonder.Emporium.2007.Open.Matte.WEB-DLRip.x264.seleZen.mkv
Format : Matroska
Format version : Version 4
File size : 2.67 GiB
Duration : 1 h 34 min
Overall bit rate : 4 043 kb/s
Movie name : Mr.Magorium’s.Wonder.Emporium.2007.Open.Matte.WEB-DLRip.x264.seleZen
Encoded date : UTC 23.09.2022 10:21:33
Writing application : mkvmerge v70.0.0 ('Caught A Lite Sneeze') 64-bit
Writing library : libebml v1.4.2 + libmatroska v1.6.4
Cover : Yes
Attachments : cover.jpg / small_cover.jpg

Video
ID : 1
Format : AVC
Format/Info : Advanced Video Codec
Format profile : [email protected]
Format settings : CABAC / 14 Ref Frames
Format settings, CABAC : Yes
Format settings, Reference : 14 frames
Codec ID : V_MPEG4/ISO/AVC
Duration : 1 h 34 min
Bit rate : 3 145 kb/s
Width : 1 024 pixels
Height : 576 pixels
Display aspect ratio : 16:9
Frame rate mode : Constant
Frame rate : 23.976 (24000/1001) FPS
Color space : YUV
Chroma subsampling : 4:2:0
Bit depth : 8 bits
Scan type : Progressive
Bits/(Pixel*Frame) : 0.222
Stream size : 2.08 GiB (78%)
Title : -=DoMiNo=-
Writing library : x264 core 164 by -=DoMiNo=-
Encoding settings : cabac=1 / ref=14 / deblock=1:-3:-2 / analyse=0×3:0×133 / me=umh / subme=10 / psy=1 / psy_rd=1.05:0.15 / mixed_ref=1 / me_range=32 / chroma_me=1 / trellis=2 / 8×8dct=1 / cqm=0 / deadzone=21,11 / fast_pskip=1 / chroma_qp_offset=-3 / threads=18 / lookahead_threads=4 / sliced_threads=0 / nr=0 / decimate=1 / interlaced=0 / bluray_compat=0 / constrained_intra=0 / bframes=10 / b_pyramid=2 / b_adapt=2 / b_bias=0 / direct=1 / weightb=1 / open_gop=0 / weightp=2 / keyint=250 / keyint_min=23 / scenecut=40 / intra_refresh=0 / rc_lookahead=60 / rc=crf / mbtree=0 / crf=18.0 / qcomp=0.70 / qpmin=0 / qpmax=69 / qpstep=4 / vbv_maxrate=50000 / vbv_bufsize=62500 / crf_max=0.0 / nal_hrd=none / filler=0 / ip_ratio=1.40 / pb_ratio=1.30 / aq=1:0.80
Language : English
Default : Yes
Forced : No
Color range : Limited
Color primaries : BT.709
Transfer characteristics : BT.709
Matrix coefficients : BT.709

Audio #1
ID : 2
Format : AC-3
Format/Info : Audio Coding 3
Commercial name : Dolby Digital
Codec ID : A_AC3
Duration : 1 h 34 min
Bit rate mode : Constant
Bit rate : 448 kb/s
Channel (s) : 6 channels
Channel layout : L R C LFE Ls Rs
Sampling rate : 48.0 kHz
Frame rate : 31.250 FPS (1536 SPF)
Compression mode : Lossy
Stream size : 303 MiB (11%)
Title : DUB_[R5]_Fix
Language : Russian
Service kind : Complete Main
Default : Yes
Forced : Yes

Audio #2
ID : 3
Format : AC-3
Format/Info : Audio Coding 3
Commercial name : Dolby Digital
Codec ID : A_AC3
Duration : 1 h 34 min
Bit rate mode : Constant
Bit rate : 448 kb/s
Channel (s) : 6 channels
Channel layout : L R C LFE Ls Rs
Sampling rate : 48.0 kHz
Frame rate : 31.250 FPS (1536 SPF)
Compression mode : Lossy
Stream size : 303 MiB (11%)
Title : Original
Language : English
Service kind : Complete Main
Default : No
Forced : No

Text #1
ID : 4
Format : UTF-8
Codec ID : S_TEXT/UTF8
Codec ID/Info : UTF-8 Plain Text
Duration : 1 h 26 min
Bit rate : 89 b/s
Count of elements : 1181
Stream size : 56.7 KiB (0%)
Language : Russian
Default : No
Forced : No

Text #2
ID : 5
Format : UTF-8
Codec ID : S_TEXT/UTF8
Codec ID/Info : UTF-8 Plain Text
Duration : 1 h 30 min
Bit rate : 60 b/s
Count of elements : 1611
Stream size : 40.4 KiB (0%)
Language : English
Default : No
Forced : No

Menu
00:00:00.000 : en:Producer credits
00:01:05.000 : en:Opening Credits
00:03:29.000 : en:Eric introduces us as Bellini starts work, Wonder Emporium
00:05:07.000 : en:Molly goes to work, city
00:07:23.000 : en:Molly tries to quit, Mr. Magorium’s house
00:10:48.000 : en:Mr. Magorium gives Molly a block of wood, Mr. Magorium’s house
00:11:57.000 : en:Molly runs into Dave the engineer, Wonder Emporium
00:15:34.000 : en:Henry Weston the Mutant is hired, Wonder Emporium
00:18:39.000 : en:Mr. Magorium tells the Mutant he’s leaving, office
00:21:59.000 : en:Jason looks behind the curtain, ball room
00:25:40.000 : en:Henry the Mutant looks for help with the books, Wonder Emporium
00:29:18.000 : en:Molly and the Emporium are both plagued by doubt, Wonder Emporium
00:32:21.000 : en:Eric’s mom encourages him to meet people, Eric’s house
00:33:43.000 : en:Eric finds a way to communicate with Henry, Wonder Emporium
00:36:19.000 : en:Molly’s self-doubt blackens the walls, Wonder Emporium
00:39:09.000 : en:The Emporium is out of order, Wonder Emporium
00:40:20.000 : en:Eric tries to rein in the chaos, Wonder Emporium
00:42:12.000 : en:Molly learns she is an Heiress, Mr. Magorium’s house
00:45:36.000 : en:Molly checks Mr. Magorium in, hospital
00:46:40.000 : en:Henry the Mutant talks about insurance, hospital
00:48:24.000 : en:Eric brings Mr. Magorium provisions, hospital room
00:50:19.000 : en:Mr. Magorium stays the night, hospital
00:52:12.000 : en:Molly tries to believe in her wooden cube, Molly’s house
00:53:16.000 : en:Molly tries to direct Henry’s attention to her sparkle, Wonder Emporium
00:55:48.000 : en:Molly and Mr. Magorium get into mischief, city
00:59:33.000 : en:Mr. Magorium makes a phone call, city
01:02:10.000 : en:Eric and Henry bond, city
01:04:19.000 : en:Eric’s mom catches Henry playing dress-up, eric’s room
01:06:39.000 : en:Mr. Magorium asks Molly to remember him, Wonder Emporium
01:10:06.000 : en:Mr. Magorium says goodbye, Wonder Emporium
01:11:30.000 : en:Molly can’t bring herself to help the blackened Emporium, Wonder Emporium
01:14:06.000 : en:Eric confronts Molly, department store
01:15:40.000 : en:Molly shows the shop to a buyer and her son, Wonder Emporium
01:17:48.000 : en:Eric asks the Mutant to help him buy the store, Henry’s agency
01:19:26.000 : en:Henry implores Molly not to sell, Wonder Emporium
01:22:28.000 : en:Molly’s block of wood begins to behave more magical, Wonder Emporium
01:23:43.000 : en:The Mutant understands why the block of wood is magical, Wonder Emporium
01:27:23.000 : en:Molly restores the Emporium to wonder, Wonder Emporium
01:28:41.000 : en:End Credits

Другие фильмы
У данной публикации пока нет комментариев.
Будь первым, оставь своё мнение в комментариях!
Информация
Посетители, находящиеся в группе Гости, не могут оставлять комментарии к данной публикации.
Самый популярный релиз недели
WEB-DL 1080p 5.57 Gb ...

Кино копилка
...
Какую тему вы используете?

Реклама
Последние комментарии
...

Dimanchez

Сегодня, 10:12

...

lomoenot

Вчера, 16:43

...

ooofly

Вчера, 08:40

...

Laska020489

Вчера, 03:27

...

zombitto

29 сентября 2022 16:25