+3

Костюм / The Outfit (2022) BDRip-AVC от DoMiNo & селезень | D

Информация о фильме
Название: Костюм
Оригинальное название: The Outfit
Год выпуска: 2022
Жанр: Триллер, драма, криминал
Режиссер: Грэм Мур / Graham Moore
В ролях: Зои Дойч, Марк Райлэнс, Дилан О’Брайен, Никки Амука-Берд, Саймон Рассел Бил, Джонатан МакКлейн, Алан Мехдизаде, Чиеду Агбор, Михал Форейтек, Скуп Вассерштейн, Майкл Аддо, Стив Чатфилд, Джон Гамли-Мейсон, Райан Холл, Лаурис Карклинс, Уильям Китч, Стивен Нокс, Джонни Флинн

О фильме:
1956 год. Лондонский портной Леонард переехал в Чикаго, где открыл своё ателье. Помимо прочих, его клиентами являются и гангстеры. Однажды вечером в ателье появляются раненый сын влиятельного бандита и его телохранитель, попавшие в засаду конкурирующей банды.

Страна: Великобритания, США
Студия: FilmNation Entertainment, Focus Features, Scoop Productions (II), Unified Theory
Продолжительность: 01:44:58
Перевод: Дублированный
Субтитры: Русские (Forced, 2хFull), английские

Файл
Формат: Matroska
Качество: BDRip-AVC
Видео: 720×360 at 23.976 fps, [email protected], ~896 kbps
Аудио: AAC, 2 ch, ~96 kbps — | Русский | Костюм / The Outfit (2022) BDRip-AVC от DoMiNo & селезень | D
Формат субтитров: softsub (SRT)

Костюм / The Outfit (2022) BDRip-AVC от DoMiNo & селезень | D

Авторизуйтесь для получения доступа к скачиванию

Нет аккаунта? Регистрация открыта и займёт меньше минуты

Вход Регистрация

x264 [info]: frame I:1412 Avg QP:11.01 size: 45475
x264 [info]: frame P:29944 Avg QP:14.54 size: 11440
x264 [info]: frame B:119652 Avg QP:16.34 size: 2491
x264 [info]: consecutive B-frames: 1,8% 1,7% 5,0% 20,7% 17,0% 27,7% 6,7% 13,7% 2,6% 1,7% 0,9%

General
Unique ID : 160816334650588939986397760393187998775 (0×78FC19753A86D9634E4D83A505B8BC37)
Complete name : D:The.Outfit.2022.DUB.BDRip.x264.seleZen.mkv
Format : Matroska
Format version : Version 4
File size : 745 MiB
Duration : 1 h 44 min
Overall bit rate : 992 kb/s
Movie name : The.Outfit.2022.DUB.BDRip.x264.seleZen
Encoded date : UTC 23.09.2022 09:45:38
Writing application : mkvmerge v70.0.0 ('Caught A Lite Sneeze') 64-bit
Writing library : libebml v1.4.2 + libmatroska v1.6.4
Cover : Yes
Attachments : cover.jpg / small_cover.jpg

Video
ID : 1
Format : AVC
Format/Info : Advanced Video Codec
Format profile : [email protected]
Format settings : CABAC / 14 Ref Frames
Format settings, CABAC : Yes
Format settings, Reference : 14 frames
Codec ID : V_MPEG4/ISO/AVC
Duration : 1 h 44 min
Bit rate : 896 kb/s
Width : 720 pixels
Height : 360 pixels
Display aspect ratio : 2.000
Frame rate mode : Constant
Frame rate : 23.976 (24000/1001) FPS
Color space : YUV
Chroma subsampling : 4:2:0
Bit depth : 8 bits
Scan type : Progressive
Bits/(Pixel*Frame) : 0.144
Stream size : 672 MiB (90%)
Title : -=DoMiNo=-
Writing library : x264 core 164 by -=DoMiNo=-
Encoding settings : cabac=1 / ref=14 / deblock=1:-3:-2 / analyse=0×3:0×133 / me=umh / subme=10 / psy=1 / psy_rd=1.02:0.03 / mixed_ref=1 / me_range=32 / chroma_me=1 / trellis=2 / 8×8dct=1 / cqm=0 / deadzone=21,11 / fast_pskip=0 / chroma_qp_offset=-3 / threads=16 / lookahead_threads=2 / sliced_threads=0 / nr=0 / decimate=0 / interlaced=0 / bluray_compat=0 / constrained_intra=0 / bframes=10 / b_pyramid=2 / b_adapt=2 / b_bias=0 / direct=3 / weightb=1 / open_gop=0 / weightp=2 / keyint=250 / keyint_min=23 / scenecut=40 / intra_refresh=0 / rc_lookahead=60 / rc=2pass / mbtree=0 / bitrate=896 / ratetol=1.0 / qcomp=0.60 / qpmin=0 / qpmax=69 / qpstep=4 / cplxblur=20.0 / qblur=0.5 / vbv_maxrate=50000 / vbv_bufsize=62500 / nal_hrd=none / filler=0 / ip_ratio=1.40 / pb_ratio=1.30 / aq=3:0.80
Language : English
Default : Yes
Forced : No

Audio
ID : 2
Format : AAC LC SBR
Format/Info : Advanced Audio Codec Low Complexity with Spectral Band Replication
Commercial name : HE-AAC
Format settings : Explicit
Codec ID : A_AAC-2
Duration : 1 h 44 min
Bit rate : 96.0 kb/s
Channel (s) : 2 channels
Channel layout : L R
Sampling rate : 48.0 kHz
Frame rate : 23.438 FPS (2048 SPF)
Compression mode : Lossy
Stream size : 71.1 MiB (10%)
Title : DUB
Language : Russian
Default : Yes
Forced : Yes

Text #1
ID : 3
Format : UTF-8
Codec ID : S_TEXT/UTF8
Codec ID/Info : UTF-8 Plain Text
Duration : 1 h 21 min
Bit rate : 0 b/s
Count of elements : 6
Stream size : 182 Bytes (0%)
Title : Forced
Language : Russian
Default : Yes
Forced : No

Text #2
ID : 4
Format : UTF-8
Codec ID : S_TEXT/UTF8
Codec ID/Info : UTF-8 Plain Text
Duration : 1 h 44 min
Bit rate : 83 b/s
Count of elements : 1246
Stream size : 64.0 KiB (0%)
Title : Full_v1
Language : Russian
Default : No
Forced : No

Text #3
ID : 5
Format : UTF-8
Codec ID : S_TEXT/UTF8
Codec ID/Info : UTF-8 Plain Text
Duration : 1 h 39 min
Bit rate : 91 b/s
Count of elements : 1435
Stream size : 66.7 KiB (0%)
Title : Full_v2_18+
Language : Russian
Default : No
Forced : No

Text #4
ID : 6
Format : UTF-8
Codec ID : S_TEXT/UTF8
Codec ID/Info : UTF-8 Plain Text
Duration : 1 h 43 min
Bit rate : 56 b/s
Count of elements : 1536
Stream size : 42.7 KiB (0%)
Title : Full
Language : English
Default : No
Forced : No

Menu
00:00:00.000 : :Глава 1
00:05:45.927 : :Глава 2
00:10:15.990 : :Глава 3
00:15:10.658 : :Глава 4
00:18:41.743 : :Глава 5
00:20:57.130 : :Глава 6
00:28:42.429 : :Глава 7
00:32:40.583 : :Глава 8
00:36:29.143 : :Глава 9
00:40:48.987 : :Глава 10
00:43:23.601 : :Глава 11
00:50:55.885 : :Глава 12
00:57:51.384 : :Глава 13
01:04:17.269 : :Глава 14
01:09:23.073 : :Глава 15
01:14:58.202 : :Глава 16
01:21:42.564 : :Глава 17
01:27:56.604 : :Глава 18
01:32:29.460 : :Глава 19
01:39:29.671 : :Глава 20

Другие фильмы
У данной публикации пока нет комментариев.
Будь первым, оставь своё мнение в комментариях!
Информация
Посетители, находящиеся в группе Гости, не могут оставлять комментарии к данной публикации.
Самый популярный релиз недели
WEB-DL 1080p 5.57 Gb ...

Кино копилка
...
Какую тему вы используете?

Реклама
Последние комментарии
...

Dimanchez

Сегодня, 10:12

...

lomoenot

Вчера, 16:43

...

ooofly

Вчера, 08:40

...

Laska020489

Вчера, 03:27

...

zombitto

29 сентября 2022 16:25