+2

Костюм / The Outfit (2022) BDRip-AVC от DoMiNo & селезень | D

Информация о фильме
Название: Костюм
Оригинальное название: The Outfit
Год выпуска: 2022
Жанр: Триллер, драма, криминал
Режиссер: Грэм Мур / Graham Moore
В ролях: Зои Дойч, Марк Райлэнс, Дилан О’Брайен, Никки Амука-Берд, Саймон Рассел Бил, Джонатан МакКлейн, Алан Мехдизаде, Чиеду Агбор, Михал Форейтек, Скуп Вассерштейн, Майкл Аддо, Стив Чатфилд, Джон Гамли-Мейсон, Райан Холл, Лаурис Карклинс, Уильям Китч, Стивен Нокс, Джонни Флинн

О фильме:
1956 год. Лондонский портной Леонард переехал в Чикаго, где открыл своё ателье. Помимо прочих, его клиентами являются и гангстеры. Однажды вечером в ателье появляются раненый сын влиятельного бандита и его телохранитель, попавшие в засаду конкурирующей банды.

Страна: Великобритания, США
Студия: FilmNation Entertainment, Focus Features, Scoop Productions (II), Unified Theory
Продолжительность: 01:44:58
Перевод: Дублированный
Субтитры: Русские (Forced, 2хFull), английские

Файл
Формат: Matroska
Качество: BDRip-AVC
Видео: 1024×512 at 23.976 fps, [email protected], ~1597 kbps
Аудио 1: AC3, 6 ch, ~384 kbps — | Русский | Костюм / The Outfit (2022) BDRip-AVC от DoMiNo & селезень | D
Аудио 2: AC3, 6 ch, ~448 kbps — | Английский |
Формат субтитров: softsub (SRT)

Костюм / The Outfit (2022) BDRip-AVC от DoMiNo & селезень | D

Авторизуйтесь для получения доступа к скачиванию

Нет аккаунта? Регистрация открыта и займёт меньше минуты

Вход Регистрация

x264 [info]: frame I:1365 Avg QP:12.63 size: 69942
x264 [info]: frame P:29134 Avg QP:14.44 size: 20574
x264 [info]: frame B:120441 Avg QP:17.18 size: 4665
x264 [info]: consecutive B-frames: 1,6% 2,4% 4,3% 16,9% 15,2% 29,7% 8,6% 14,2% 3,6% 1,5% 0,8%

General
Unique ID : 58848800582924593788009920118905826468 (0×2C45DDE19592899FCF77719427F2ECA4)
Complete name : D:The.Outfit.2022.BDRip.x264.seleZen.mkv
Format : Matroska
Format version : Version 4
File size : 1.78 GiB
Duration : 1 h 44 min
Overall bit rate : 2 431 kb/s
Movie name : The.Outfit.2022.BDRip.x264.seleZen
Encoded date : UTC 22.09.2022 21:33:36
Writing application : mkvmerge v70.0.0 ('Caught A Lite Sneeze') 64-bit
Writing library : libebml v1.4.2 + libmatroska v1.6.4
Cover : Yes
Attachments : cover.jpg / small_cover.jpg

Video
ID : 1
Format : AVC
Format/Info : Advanced Video Codec
Format profile : [email protected]
Format settings : CABAC / 14 Ref Frames
Format settings, CABAC : Yes
Format settings, Reference : 14 frames
Codec ID : V_MPEG4/ISO/AVC
Duration : 1 h 44 min
Bit rate : 1 597 kb/s
Width : 1 024 pixels
Height : 512 pixels
Display aspect ratio : 2.000
Frame rate mode : Constant
Frame rate : 23.976 (24000/1001) FPS
Color space : YUV
Chroma subsampling : 4:2:0
Bit depth : 8 bits
Scan type : Progressive
Bits/(Pixel*Frame) : 0.127
Stream size : 1.17 GiB (66%)
Title : -=DoMiNo=-
Writing library : x264 core 164 by -=DoMiNo=-
Encoding settings : cabac=1 / ref=14 / deblock=1:-3:-2 / analyse=0×3:0×133 / me=umh / subme=10 / psy=1 / psy_rd=1.02:0.03 / mixed_ref=1 / me_range=32 / chroma_me=1 / trellis=2 / 8×8dct=1 / cqm=0 / deadzone=21,11 / fast_pskip=1 / chroma_qp_offset=-3 / threads=16 / lookahead_threads=4 / sliced_threads=0 / nr=0 / decimate=1 / interlaced=0 / bluray_compat=0 / constrained_intra=0 / bframes=10 / b_pyramid=2 / b_adapt=2 / b_bias=0 / direct=1 / weightb=1 / open_gop=0 / weightp=2 / keyint=250 / keyint_min=23 / scenecut=40 / intra_refresh=0 / rc_lookahead=60 / rc=crf / mbtree=0 / crf=16.8 / qcomp=0.60 / qpmin=0 / qpmax=69 / qpstep=4 / vbv_maxrate=50000 / vbv_bufsize=62500 / crf_max=0.0 / nal_hrd=none / filler=0 / ip_ratio=1.40 / pb_ratio=1.30 / aq=3:0.80
Language : English
Default : Yes
Forced : No

Audio #1
ID : 2
Format : AC-3
Format/Info : Audio Coding 3
Commercial name : Dolby Digital
Codec ID : A_AC3
Duration : 1 h 44 min
Bit rate mode : Constant
Bit rate : 384 kb/s
Channel (s) : 6 channels
Channel layout : L R C LFE Ls Rs
Sampling rate : 48.0 kHz
Frame rate : 31.250 FPS (1536 SPF)
Compression mode : Lossy
Stream size : 288 MiB (16%)
Title : DUB
Language : Russian
Service kind : Complete Main
Default : Yes
Forced : Yes

Audio #2
ID : 3
Format : AC-3
Format/Info : Audio Coding 3
Commercial name : Dolby Digital
Codec ID : A_AC3
Duration : 1 h 44 min
Bit rate mode : Constant
Bit rate : 448 kb/s
Channel (s) : 6 channels
Channel layout : L R C LFE Ls Rs
Sampling rate : 48.0 kHz
Frame rate : 31.250 FPS (1536 SPF)
Compression mode : Lossy
Stream size : 336 MiB (18%)
Title : Original
Language : English
Service kind : Complete Main
Default : No
Forced : No

Text #1
ID : 4
Format : UTF-8
Codec ID : S_TEXT/UTF8
Codec ID/Info : UTF-8 Plain Text
Duration : 1 h 21 min
Bit rate : 0 b/s
Count of elements : 6
Stream size : 182 Bytes (0%)
Title : Forced
Language : Russian
Default : Yes
Forced : No

Text #2
ID : 5
Format : UTF-8
Codec ID : S_TEXT/UTF8
Codec ID/Info : UTF-8 Plain Text
Duration : 1 h 44 min
Bit rate : 83 b/s
Count of elements : 1246
Stream size : 64.0 KiB (0%)
Title : Full_v1
Language : Russian
Default : No
Forced : No

Text #3
ID : 6
Format : UTF-8
Codec ID : S_TEXT/UTF8
Codec ID/Info : UTF-8 Plain Text
Duration : 1 h 39 min
Bit rate : 91 b/s
Count of elements : 1435
Stream size : 66.7 KiB (0%)
Title : Full_v2_18+
Language : Russian
Default : No
Forced : No

Text #4
ID : 7
Format : UTF-8
Codec ID : S_TEXT/UTF8
Codec ID/Info : UTF-8 Plain Text
Duration : 1 h 43 min
Bit rate : 56 b/s
Count of elements : 1536
Stream size : 42.7 KiB (0%)
Title : Full
Language : English
Default : No
Forced : No

Menu
00:00:00.000 : :Глава 1
00:05:45.927 : :Глава 2
00:10:15.990 : :Глава 3
00:15:10.658 : :Глава 4
00:18:41.743 : :Глава 5
00:20:57.130 : :Глава 6
00:28:42.429 : :Глава 7
00:32:40.583 : :Глава 8
00:36:29.143 : :Глава 9
00:40:48.987 : :Глава 10
00:43:23.601 : :Глава 11
00:50:55.885 : :Глава 12
00:57:51.384 : :Глава 13
01:04:17.269 : :Глава 14
01:09:23.073 : :Глава 15
01:14:58.202 : :Глава 16
01:21:42.564 : :Глава 17
01:27:56.604 : :Глава 18
01:32:29.460 : :Глава 19
01:39:29.671 : :Глава 20

Другие фильмы
У данной публикации пока нет комментариев.
Будь первым, оставь своё мнение в комментариях!
Информация
Посетители, находящиеся в группе Гости, не могут оставлять комментарии к данной публикации.
Самый популярный релиз недели
WEB-DL 1080p 5.57 Gb ...

Кино копилка
...
Какую тему вы используете?

Реклама
Последние комментарии
...

Dimanchez

Сегодня, 10:12

...

lomoenot

Вчера, 16:43

...

ooofly

Вчера, 08:40

...

Laska020489

Вчера, 03:27

...

zombitto

29 сентября 2022 16:25