+2

Костюм / The Outfit (2022) UHD BDRemux 2160p от селезень | 4K | HDR | D

Информация о фильме
Название: Костюм
Оригинальное название: The Outfit
Год выхода: 2022
Жанр: триллер, драма, криминал
Режиссер: Грэм Мур
В ролях: Марк Райлэнс, Зои Дойч, Джонни Флинн, Дилан О'Брайен, Никки Амука-Бёрд, Саймон Расселл Бил, Джон Гамли-Мейсон, Стивен Нокс, Стив Чатфилд, Михал Форейтек

О фильме: 1956 год. Лондонский портной Леонард переехал в Чикаго, где открыл своё ателье. Помимо прочих, его клиентами являются и гангстеры. Однажды вечером в ателье появляются раненый сын влиятельного бандита и его телохранитель, попавшие в засаду конкурирующей банды.

Страна: Великобритания, США
Студия: FilmNation Entertainment, Focus Features, Scoop Productions (II)
Продолжительность: 01:44:58
Перевод: Дублированный

Качество: BDRemux 2160p
Видео: 3840x2160 at 23.976 fps, MPEG-H HEVC HDR Video, 71200 kbps avg
Аудио #01: 48 kHz, AC3, 5.1, 384 Kbps | Дублированный | RUS |Костюм / The Outfit (2022) UHD BDRemux 2160p от селезень | 4K | HDR | D
Аудио #02: 48 kHz, TrueHD, 7.1, 3133 Kbps | Оригинал | ENG |%20ENG%20
Субтитры: Русские (Forced, full), английские

Костюм / The Outfit (2022) UHD BDRemux 2160p от селезень | 4K | HDR | D

Авторизуйтесь для получения доступа к скачиванию

Нет аккаунта? Регистрация открыта и займёт меньше минуты

Вход Регистрация

General
Unique ID : 28635243558235179515557443011385605131 (0x158AF28279221D97B2FE2C08C735BC0B)
Complete name : E:\Video1\The.Outfit.2022.BDREMUX.2160p.HDR.seleZen.mkv
Format : Matroska
Format version : Version 4
File size : 55.3 GiB
Duration : 1 h 44 min
Overall bit rate mode : Variable
Overall bit rate : 75.5 Mb/s
Movie name : The Outfit 2022 from seleZen
Encoded date : UTC 2022-09-22 20:14:42
Writing application : mkvmerge v59.0.0 ('Shining Star') 64-bit
Writing library : libebml v1.4.2 + libmatroska v1.6.4

Video
ID : 1
ID in the original source m : 4113 (0x1011)
Format : HEVC
Format/Info : High Efficiency Video Coding
Format profile : Main [email protected]@High
HDR format : SMPTE ST 2086, HDR10 compatible
Codec ID : V_MPEGH/ISO/HEVC
Duration : 1 h 44 min
Bit rate : 71.2 Mb/s
Width : 3 840 pixels
Height : 2 160 pixels
Display aspect ratio : 16:9
Frame rate mode : Constant
Frame rate : 23.976 (24000/1001) FPS
Color space : YUV
Chroma subsampling : 4:2:0 (Type 2)
Bit depth : 10 bits
Bits/(Pixel*Frame) : 0.358
Stream size : 52.2 GiB (94%)
Writing library : ATEME Titan File 3.9.10 (4.9.10.1)
Language : English
Default : Yes
Forced : No
Color range : Limited
Color primaries : BT.2020
Transfer characteristics : PQ
Matrix coefficients : BT.2020 non-constant
Mastering display color pri : Display P3
Mastering display luminance : min: 0.0001 cd/m2, max: 1000 cd/m2
Maximum Content Light Level : 1035 cd/m2
Maximum Frame-Average Light : 537 cd/m2
Original source medium : Blu-ray

Audio #1
ID : 2
Format : AC-3
Format/Info : Audio Coding 3
Commercial name : Dolby Digital
Codec ID : A_AC3
Duration : 1 h 44 min
Bit rate mode : Constant
Bit rate : 384 kb/s
Channel(s) : 6 channels
Channel layout : L R C LFE Ls Rs
Sampling rate : 48.0 kHz
Frame rate : 31.250 FPS (1536 SPF)
Compression mode : Lossy
Stream size : 288 MiB (1%)
Title : Dub
Language : Russian
Service kind : Complete Main
Default : Yes
Forced : Yes

Audio #2
ID : 3
ID in the original source m : 4352 (0x1100)
Format : MLP FBA 16-ch
Format/Info : Meridian Lossless Packing FBA with 16-channel presentation
Commercial name : Dolby TrueHD with Dolby Atmos
Codec ID : A_TRUEHD
Duration : 1 h 44 min
Bit rate mode : Variable
Bit rate : 3 133 kb/s
Maximum bit rate : 4 392 kb/s
Channel(s) : 8 channels
Channel layout : L R C LFE Ls Rs Lb Rb
Sampling rate : 48.0 kHz
Frame rate : 1 200.000 FPS (40 SPF)
Bit depth : 24 bits
Compression mode : Lossless
Stream size : 2.30 GiB (4%)
Title : Original
Language : English
Default : No
Forced : No
Original source medium : Blu-ray
Number of dynamic objects : 13
Bed channel count : 1 channel
Bed channel configuration : LFE

Audio #3
ID : 4
ID in the original source m : 4352 (0x1100)
Format : AC-3
Format/Info : Audio Coding 3
Commercial name : Dolby Digital
Codec ID : A_AC3
Duration : 1 h 44 min
Bit rate mode : Constant
Bit rate : 640 kb/s
Channel(s) : 6 channels
Channel layout : L R C LFE Ls Rs
Sampling rate : 48.0 kHz
Frame rate : 31.250 FPS (1536 SPF)
Compression mode : Lossy
Stream size : 480 MiB (1%)
Language : English
Service kind : Complete Main
Default : No
Forced : No
Original source medium : Blu-ray

Text #1
ID : 5
Format : UTF-8
Codec ID : S_TEXT/UTF8
Codec ID/Info : UTF-8 Plain Text
Duration : 1 h 21 min
Bit rate : 0 b/s
Frame rate : 0.001 FPS
Count of elements : 4
Stream size : 147 Bytes (0%)
Title : Forced
Language : Russian
Default : Yes
Forced : Yes

Text #2
ID : 6
Format : UTF-8
Codec ID : S_TEXT/UTF8
Codec ID/Info : UTF-8 Plain Text
Duration : 1 h 39 min
Bit rate : 91 b/s
Frame rate : 0.242 FPS
Count of elements : 1435
Stream size : 66.7 KiB (0%)
Title : Full
Language : Russian
Default : No
Forced : No

Text #3
ID : 7
Format : UTF-8
Codec ID : S_TEXT/UTF8
Codec ID/Info : UTF-8 Plain Text
Duration : 1 h 43 min
Bit rate : 56 b/s
Frame rate : 0.246 FPS
Count of elements : 1536
Stream size : 42.7 KiB (0%)
Title : Full
Language : English
Default : No
Forced : No

Menu
00:00:00.000 : Chapter 01
00:10:16.032 : Chapter 02
00:21:09.309 : Chapter 03
00:32:56.015 : Chapter 04
00:41:07.590 : Chapter 05
00:50:55.844 : Chapter 06
00:57:57.765 : Chapter 07
01:04:27.154 : Chapter 08
01:14:04.148 : Chapter 09
01:22:20.060 : Chapter 10
01:32:29.585 : Chapter 11
01:39:29.463 : Chapter 12

Другие фильмы
У данной публикации пока нет комментариев.
Будь первым, оставь своё мнение в комментариях!
Информация
Посетители, находящиеся в группе Гости, не могут оставлять комментарии к данной публикации.
Самый популярный релиз недели
WEB-DL 1080p 5.57 Gb ...

Кино копилка
...
Какую тему вы используете?

Реклама
Последние комментарии
...

Dimanchez

Сегодня, 10:12

...

lomoenot

Вчера, 16:43

...

ooofly

Вчера, 08:40

...

Laska020489

Вчера, 03:27

...

zombitto

29 сентября 2022 16:25