+4

Костюм / The Outfit (2022) BDRip 1080p от селезень | D

Информация о фильме
Название: Костюм
Оригинальное название: The Outfit
Год выхода: 2022
Жанр: триллер, драма, криминал
Режиссер: Грэм Мур
В ролях: Марк Райлэнс, Зои Дойч, Джонни Флинн, Дилан О'Брайен, Никки Амука-Бёрд, Саймон Расселл Бил, Джон Гамли-Мейсон, Стивен Нокс, Стив Чатфилд, Михал Форейтек

О фильме: 1956 год. Лондонский портной Леонард переехал в Чикаго, где открыл своё ателье. Помимо прочих, его клиентами являются и гангстеры. Однажды вечером в ателье появляются раненый сын влиятельного бандита и его телохранитель, попавшие в засаду конкурирующей банды.

Страна: Великобритания, США
Студия: FilmNation Entertainment, Focus Features, Scoop Productions (II)
Продолжительность: 01:44:58
Перевод: Дублированный

Качество: BDRip 1080p
Видео: MPEG-4 AVC, 1920x960, 16.5 Mbit/s, 23.976 fps
Аудио #01: 48 kHz, AC3, 5.1, 384 Kbps | Дублированный | RUS |Костюм / The Outfit (2022) BDRip 1080p от селезень | D
Аудио #02: 48 kHz, AC3, 5.1, 640 Kbps | Оригинал | ENG |
Субтитры: Русские (Forced, full), английские

Костюм / The Outfit (2022) BDRip 1080p от селезень | D

Авторизуйтесь для получения доступа к скачиванию

Нет аккаунта? Регистрация открыта и займёт меньше минуты

Вход Регистрация

General
Unique ID : 58704558380254757797403159045835667946 (0x2C2A163107FA1ACD5DF89E55327939EA)
Complete name : E:\Video1\The.Outfit.2022.BDRip.1080p.seleZen.mkv
Format : Matroska
Format version : Version 4
File size : 12.8 GiB
Duration : 1 h 44 min
Overall bit rate : 17.5 Mb/s
Movie name : The Outfit 2022 from seleZen
Encoded date : UTC 2022-09-22 19:59:03
Writing application : mkvmerge v59.0.0 ('Shining Star') 64-bit
Writing library : libebml v1.4.2 + libmatroska v1.6.4

Video
ID : 1
Format : AVC
Format/Info : Advanced Video Codec
Format profile : [email protected]
Format settings : CABAC / 4 Ref Frames
Format settings, CABAC : Yes
Format settings, Reference : 4 frames
Codec ID : V_MPEG4/ISO/AVC
Duration : 1 h 44 min
Bit rate : 16.5 Mb/s
Width : 1 920 pixels
Height : 960 pixels
Display aspect ratio : 2.000
Frame rate mode : Constant
Frame rate : 23.976 (24000/1001) FPS
Color space : YUV
Chroma subsampling : 4:2:0
Bit depth : 8 bits
Scan type : Progressive
Bits/(Pixel*Frame) : 0.373
Stream size : 12.1 GiB (94%)
Writing library : x264 core 164 r3085+55M seleZen t_mod_New [(8 & 10)[email protected] X86_64]
Encoding settings : cabac=1 / ref=4 / deblock=1:-2:-2 / analyse=0x3:0x133 / me=umh / subme=10 / psy=1 / fade_compensate=0.00 / psy_rd=1.02:0.02 / mixed_ref=1 / me_range=32 / chroma_me=1 / trellis=2 / 8x8dct=1 / cqm=0 / deadzone=21,11 / fast_pskip=0 / chroma_qp_offset=-3 / threads=30 / lookahead_threads=5 / sliced_threads=0 / nr=0 / decimate=0 / interlaced=0 / bluray_compat=0 / constrained_intra=0 / fgo=0 / bframes=9 / b_pyramid=2 / b_adapt=2 / b_bias=0 / direct=3 / weightb=1 / open_gop=0 / weightp=2 / keyint=240 / keyint_min=23 / scenecut=40 / intra_refresh=0 / rc_lookahead=60 / rc=2pass / mbtree=0 / bitrate=16476 / ratetol=1.0 / qcomp=0.60 / qpmin=0:0:0 / qpmax=51:51:51 / qpstep=4 / cplxblur=20.0 / qblur=0.5 / vbv_maxrate=50000 / vbv_bufsize=62500 / nal_hrd=none / filler=0 / ip_ratio=1.40 / pb_ratio=1.30 / aq=3:0.80 / aq-sensitivity=10.00 / aq-factor=1.00:1.00:1.00 / aq2=0 / aq3=0
Language : English
Default : Yes
Forced : No

Audio #1
ID : 2
Format : AC-3
Format/Info : Audio Coding 3
Commercial name : Dolby Digital
Codec ID : A_AC3
Duration : 1 h 44 min
Bit rate mode : Constant
Bit rate : 384 kb/s
Channel(s) : 6 channels
Channel layout : L R C LFE Ls Rs
Sampling rate : 48.0 kHz
Frame rate : 31.250 FPS (1536 SPF)
Compression mode : Lossy
Stream size : 288 MiB (2%)
Title : Dub
Language : Russian
Service kind : Complete Main
Default : Yes
Forced : Yes

Audio #2
ID : 3
Format : AC-3
Format/Info : Audio Coding 3
Commercial name : Dolby Digital
Codec ID : A_AC3
Duration : 1 h 44 min
Bit rate mode : Constant
Bit rate : 640 kb/s
Channel(s) : 6 channels
Channel layout : L R C LFE Ls Rs
Sampling rate : 48.0 kHz
Frame rate : 31.250 FPS (1536 SPF)
Compression mode : Lossy
Stream size : 481 MiB (4%)
Title : Original
Language : English
Service kind : Complete Main
Default : No
Forced : No

Text #1
ID : 4
Format : UTF-8
Codec ID : S_TEXT/UTF8
Codec ID/Info : UTF-8 Plain Text
Duration : 1 h 21 min
Bit rate : 0 b/s
Frame rate : 0.001 FPS
Count of elements : 4
Stream size : 147 Bytes (0%)
Title : Forced
Language : Russian
Default : Yes
Forced : Yes

Text #2
ID : 5
Format : UTF-8
Codec ID : S_TEXT/UTF8
Codec ID/Info : UTF-8 Plain Text
Duration : 1 h 39 min
Bit rate : 91 b/s
Frame rate : 0.242 FPS
Count of elements : 1435
Stream size : 66.7 KiB (0%)
Title : Full
Language : Russian
Default : No
Forced : No

Text #3
ID : 6
Format : UTF-8
Codec ID : S_TEXT/UTF8
Codec ID/Info : UTF-8 Plain Text
Duration : 1 h 43 min
Bit rate : 56 b/s
Frame rate : 0.246 FPS
Count of elements : 1536
Stream size : 42.7 KiB (0%)
Title : Full
Language : English
Default : No
Forced : No

Menu
00:00:00.000 : Chapter 01
00:05:45.928 : Chapter 02
00:10:16.073 : Chapter 03
00:15:10.659 : Chapter 04
00:18:41.745 : Chapter 05
00:20:57.130 : Chapter 06
00:28:42.429 : Chapter 07
00:32:40.583 : Chapter 08
00:36:29.353 : Chapter 09
00:40:48.988 : Chapter 10
00:43:23.976 : Chapter 11
00:50:55.886 : Chapter 12
00:57:51.384 : Chapter 13
01:04:17.270 : Chapter 14
01:09:23.325 : Chapter 15
01:14:58.410 : Chapter 16
01:21:42.480 : Chapter 17
01:27:56.980 : Chapter 18
01:32:29.669 : Chapter 19
01:39:29.338 : Chapter 20

Другие фильмы
У данной публикации пока нет комментариев.
Будь первым, оставь своё мнение в комментариях!
Информация
Посетители, находящиеся в группе Гости, не могут оставлять комментарии к данной публикации.
Самый популярный релиз недели
WEB-DL 1080p 5.57 Gb ...

Кино копилка
...
Какую тему вы используете?

Реклама
Последние комментарии
...

Dimanchez

Сегодня, 10:12

...

lomoenot

Вчера, 16:43

...

ooofly

Вчера, 08:40

...

Laska020489

Вчера, 03:27

...

zombitto

29 сентября 2022 16:25