+4

Венецияфрения / Veneciafrenia (2021) WEB-DLRip 720p от DoMiNo & селезень | D

Информация о фильме
Название: Венецияфрения
Оригинальное название: Veneciafrenia
Год выхода: 2021
Жанр: ужасы, триллер, приключения
Режиссер: Алекс де ла Иглесиа
В ролях: Ингрид Гарсия Йонсон, Сильвия Алонсо, Гоизе Бланко, Николас Иллоро, Альберто Банг, Энрико Ло Версо, Козимо Фуско, Катерина Мурино, Армандо Де Рацца, Нико Ромеро

О фильме:
Компания испанцев — Иса, Сусана, Аранца, Хави и Хосе — прибывает в Венецию, чтобы хорошенько погулять на девишнике Исы. Сначала ребята сталкиваются с навязчивым и неприятным ряженым в костюме шута Риголетто, а вечером, будучи основательно навеселе, отправляются на закрытую вечеринку. С утра приятели не обнаруживают Хосе и что ещё более странно — не могут предоставить полиции доказательства его существования. А в это время Риголетто убивает случайных туристов на улице, выставляя это как спланированное представление.

Выпущено: Испания / Amazon Studios, Eliofilm, Mogambo
Продолжительность: 01:39:03
Перевод: Дублированный [КиноПоиск HD]
Субтитры: English, Spanish

Файл
Формат: Matroska
Качество: WEB-DLRip 720p
Видео: 1272x530 at 24.000 fps, [email protected], ~3197 kbps
Аудио 1: AC3, 6 ch, ~448 kbps - | Русский | Венецияфрения / Veneciafrenia (2021) WEB-DLRip 720p от DoMiNo & селезень | D
Аудио 2: AC3, 6 ch, ~384 kbps - | Испанский |
Формат субтитров: softsub (SRT)

Венецияфрения / Veneciafrenia (2021) WEB-DLRip 720p от DoMiNo & селезень | D

Авторизуйтесь для получения доступа к скачиванию

Нет аккаунта? Регистрация открыта и займёт меньше минуты

Вход Регистрация

x264 [info]: frame I:1378 Avg QP:17.89 size: 68730
x264 [info]: frame P:34297 Avg QP:18.64 size: 31333
x264 [info]: frame B:106946 Avg QP:20.72 size: 11274

General
Unique ID : 117785169181692659270874011667889735839 (0×589C9932EA9E8805CC61ABD74F75489 °F)
Complete name : L:Veneciafrenia.2021.WEB-DLRip.720p.x264.seleZen.mkv
Format : Matroska
Format version : Version 4
File size : 2.79 GiB
Duration : 1 h 39 min
Overall bit rate : 4 032 kb/s
Movie name : Veneciafrenia.2021.WEB-DLRip.720p.x264.seleZen
Encoded date : UTC 16.08.2022 21:45:59
Writing application : mkvmerge v70.0.0 ('Caught A Lite Sneeze') 64-bit
Writing library : libebml v1.4.2 + libmatroska v1.6.4
Cover : Yes
Attachments : cover.jpg / small_cover.jpg

Video
ID : 1
Format : AVC
Format/Info : Advanced Video Codec
Format profile : [email protected]
Format settings : CABAC / 12 Ref Frames
Format settings, CABAC : Yes
Format settings, Reference : 12 frames
Codec ID : V_MPEG4/ISO/AVC
Duration : 1 h 39 min
Bit rate : 3 197 kb/s
Width : 1 272 pixels
Height : 530 pixels
Display aspect ratio : 2.40:1
Frame rate mode : Constant
Frame rate : 24.000 FPS
Color space : YUV
Chroma subsampling : 4:2:0
Bit depth : 8 bits
Scan type : Progressive
Bits/(Pixel*Frame) : 0.198
Stream size : 2.21 GiB (79%)
Title : -=DoMiNo=-
Writing library : x264 core 164 by -=DoMiNo=-
Encoding settings : cabac=1 / ref=12 / deblock=1:-3:-3 / analyse=0×3:0×133 / me=umh / subme=9 / psy=1 / psy_rd=1.05:0.15 / mixed_ref=1 / me_range=32 / chroma_me=1 / trellis=2 / 8×8dct=1 / cqm=0 / deadzone=21,11 / fast_pskip=0 / chroma_qp_offset=-3 / threads=17 / lookahead_threads=2 / sliced_threads=0 / nr=0 / decimate=0 / interlaced=0 / bluray_compat=0 / constrained_intra=0 / bframes=9 / b_pyramid=2 / b_adapt=2 / b_bias=0 / direct=1 / weightb=1 / open_gop=0 / weightp=2 / keyint=250 / keyint_min=24 / scenecut=40 / intra_refresh=0 / rc_lookahead=60 / rc=crf / mbtree=0 / crf=20.5 / qcomp=0.65 / qpmin=0 / qpmax=69 / qpstep=4 / vbv_maxrate=50000 / vbv_bufsize=62500 / crf_max=0.0 / nal_hrd=none / filler=0 / ip_ratio=1.30 / pb_ratio=1.25 / aq=3:0.80
Language : English
Default : Yes
Forced : No
Color range : Limited
Color primaries : BT.709
Transfer characteristics : BT.709
Matrix coefficients : BT.709

Audio #1
ID : 2
Format : AC-3
Format/Info : Audio Coding 3
Commercial name : Dolby Digital
Codec ID : A_AC3
Duration : 1 h 39 min
Bit rate mode : Constant
Bit rate : 448 kb/s
Channel (s) : 6 channels
Channel layout : L R C LFE Ls Rs
Sampling rate : 48.0 kHz
Frame rate : 31.250 FPS (1536 SPF)
Compression mode : Lossy
Stream size : 317 MiB (11%)
Title : DUB AC3 (KP HD)
Language : Russian
Service kind : Complete Main
Default : Yes
Forced : Yes

Audio #2
ID : 3
Format : AC-3
Format/Info : Audio Coding 3
Commercial name : Dolby Digital
Codec ID : A_AC3
Duration : 1 h 39 min
Bit rate mode : Constant
Bit rate : 384 kb/s
Channel (s) : 6 channels
Channel layout : L R C LFE Ls Rs
Sampling rate : 48.0 kHz
Frame rate : 31.250 FPS (1536 SPF)
Compression mode : Lossy
Stream size : 272 MiB (10%)
Title : Original
Language : Spanish
Service kind : Complete Main
Default : No
Forced : No

Text #1
ID : 4
Format : UTF-8
Codec ID : S_TEXT/UTF8
Codec ID/Info : UTF-8 Plain Text
Duration : 1 h 33 min
Bit rate : 50 b/s
Count of elements : 1110
Stream size : 34.6 KiB (0%)
Language : English
Default : No
Forced : No

Text #2
ID : 5
Format : UTF-8
Codec ID : S_TEXT/UTF8
Codec ID/Info : UTF-8 Plain Text
Duration : 1 h 33 min
Bit rate : 61 b/s
Count of elements : 1329
Stream size : 41.8 KiB (0%)
Language : Spanish
Default : No
Forced : No

Menu
00:00:00.000 : en:Глава 01
00:12:30.000 : en:Глава 02
00:25:00.000 : en:Глава 03
00:37:30.000 : en:Глава 04
00:50:00.000 : en:Глава 05
01:02:30.000 : en:Глава 06
01:15:00.000 : en:Глава 07
01:27:30.000 : en:Глава 08

Другие фильмы
У данной публикации пока нет комментариев.
Будь первым, оставь своё мнение в комментариях!
Информация
Посетители, находящиеся в группе Гости, не могут оставлять комментарии к данной публикации.
Самый популярный релиз недели
WEB-DL 1080p 5.57 Gb ...

Кино копилка
...
Какую тему вы используете?

Реклама
Последние комментарии
...

Dimanchez

Сегодня, 10:12

...

lomoenot

Вчера, 16:43

...

ooofly

Вчера, 08:40

...

Laska020489

Вчера, 03:27

...

zombitto

29 сентября 2022 16:25