+3

Память / Memoria (2021) BDRip-AVC от DoMiNo & селезень | P | Кинопоиск HD

Информация о фильме
Название: Память
Оригинальное название: Memoria
Год выхода: 2021
Жанр: Фантастика, драма
Режиссер: Апитчатпон Вирасетакул
В ролях: Тильда Суинтон, Элькин Диас, Жанна Балибар, Хуан Пабло Уррего, Даниэль Хименес Качо, Агнес Брекке, Жеронимо Барон, Констанца Гутьеррез, Дэниэл Торо

О фильме:
Джессика, специалист по выращиванию орхидей, приезжает в Колумбию, чтобы ухаживать за сестрой, находящейся в состоянии сна. Но и сама Джессика практически теряет покой — ее преследует странный звук, похожий то ли на взрыв, то ли на мощный удар, который тревожит и лишает сна. Пытаясь понять его происхождение, героиня все больше теряет связь с тем, что принято считать реальностью.

Страна: Колумбия, Таиланд, Франция, Германия, Мексика, Катар, Великобритания, Китай, Швейцария
Студия: 185 Films, Anna Sanders Films, Beijing Contemporary Art foundation, Bord Cadre Films
Продолжительность: 02:15:48
Перевод: Профессиональный (многоголосый, закадровый) | Позитив | Кинопоиск HD
Субтитры: Русские (Full), английские

Файл
Формат: Matroska
Качество: BDRip-AVC
Видео: 1024×552 at 24.000 fps, [email protected], ~1913 kbps
Аудио 1: AC3, 6 ch, ~448 kbps — | Русский | Память / Memoria (2021) BDRip-AVC от DoMiNo & селезень | P | Кинопоиск HD
Аудио 2: AC3, 6 ch, ~448 kbps — | Английский / Испанский |
Формат субтитров: softsub (SRT)

Память / Memoria (2021) BDRip-AVC от DoMiNo & селезень | P | Кинопоиск HD

Авторизуйтесь для получения доступа к скачиванию

Нет аккаунта? Регистрация открыта и займёт меньше минуты

Вход Регистрация

x264 [info]: frame I:839 Avg QP:15.41 size:108160
x264 [info]: frame P:36203 Avg QP:16.03 size: 27557
x264 [info]: frame B:158528 Avg QP:17.86 size: 5423
x264 [info]: consecutive B-frames: 0,8% 1,5% 3,7% 8,4% 16,8% 48,0% 12,1% 4,0% 1,8% 1,1% 0,5% 0,2% 0,2% 0,1% 0,8%

General
Unique ID : 248569003505473943005427779903976536898 (0xBB00A611D7E99E9CBB044A9C97E67B42)
Complete name : D:Memoria.2021.BDRip.x264.seleZen.mkv
Format : Matroska
Format version : Version 4
File size : 2.67 GiB
Duration : 2 h 15 min
Overall bit rate : 2 811 kb/s
Movie name : Memoria.2021.BDRip.x264.seleZen
Encoded date : UTC 16.08.2022 18:16:00
Writing application : mkvmerge v70.0.0 ('Caught A Lite Sneeze') 64-bit
Writing library : libebml v1.4.2 + libmatroska v1.6.4
Cover : Yes
Attachments : cover.jpg / small_cover.jpg

Video
ID : 1
Format : AVC
Format/Info : Advanced Video Codec
Format profile : [email protected]
Format settings : CABAC / 12 Ref Frames
Format settings, CABAC : Yes
Format settings, Reference : 12 frames
Codec ID : V_MPEG4/ISO/AVC
Duration : 2 h 15 min
Bit rate : 1 913 kb/s
Width : 1 024 pixels
Height : 552 pixels
Display aspect ratio : 1.85:1
Frame rate mode : Constant
Frame rate : 24.000 FPS
Color space : YUV
Chroma subsampling : 4:2:0
Bit depth : 8 bits
Scan type : Progressive
Bits/(Pixel*Frame) : 0.141
Stream size : 1.81 GiB (68%)
Title : -=DoMiNo=-
Writing library : x264 core 164 by -=DoMiNo=-
Encoding settings : cabac=1 / ref=12 / deblock=1:-3:-3 / analyse=0×3:0×133 / me=umh / subme=11 / psy=1 / psy_rd=1.03:0.05 / mixed_ref=1 / me_range=32 / chroma_me=1 / trellis=2 / 8×8dct=1 / cqm=0 / deadzone=21,11 / fast_pskip=0 / chroma_qp_offset=-3 / threads=17 / lookahead_threads=4 / sliced_threads=0 / nr=0 / decimate=0 / interlaced=0 / bluray_compat=0 / constrained_intra=0 / bframes=14 / b_pyramid=2 / b_adapt=2 / b_bias=0 / direct=1 / weightb=1 / open_gop=0 / weightp=2 / keyint=250 / keyint_min=24 / scenecut=40 / intra_refresh=0 / rc_lookahead=60 / rc=crf / mbtree=0 / crf=17.5 / qcomp=0.65 / qpmin=0 / qpmax=69 / qpstep=4 / vbv_maxrate=50000 / vbv_bufsize=62500 / crf_max=0.0 / nal_hrd=none / filler=0 / ip_ratio=1.30 / pb_ratio=1.30 / aq=3:0.80
Language : English
Default : Yes
Forced : No
Color range : Limited
Color primaries : BT.709
Transfer characteristics : BT.709
Matrix coefficients : BT.709

Audio #1
ID : 2
Format : AC-3
Format/Info : Audio Coding 3
Commercial name : Dolby Digital
Codec ID : A_AC3
Duration : 2 h 15 min
Bit rate mode : Constant
Bit rate : 448 kb/s
Channel (s) : 6 channels
Channel layout : L R C LFE Ls Rs
Sampling rate : 48.0 kHz
Frame rate : 31.250 FPS (1536 SPF)
Compression mode : Lossy
Stream size : 435 MiB (16%)
Title : MVO [Kinopoisk HD]
Language : Russian
Service kind : Complete Main
Default : Yes
Forced : Yes

Audio #2
ID : 3
Format : AC-3
Format/Info : Audio Coding 3
Commercial name : Dolby Digital
Codec ID : A_AC3
Duration : 2 h 15 min
Bit rate mode : Constant
Bit rate : 448 kb/s
Channel (s) : 6 channels
Channel layout : L R C LFE Ls Rs
Sampling rate : 48.0 kHz
Frame rate : 31.250 FPS (1536 SPF)
Compression mode : Lossy
Stream size : 435 MiB (16%)
Title : Original [Английский / Испанский]
Language : Multiple languages
Service kind : Complete Main
Default : No
Forced : No

Text #1
ID : 4
Format : UTF-8
Codec ID : S_TEXT/UTF8
Codec ID/Info : UTF-8 Plain Text
Duration : 1 h 55 min
Bit rate : 32 b/s
Count of elements : 564
Stream size : 27.4 KiB (0%)
Title : Full
Language : Russian
Default : No
Forced : No

Text #2
ID : 5
Format : UTF-8
Codec ID : S_TEXT/UTF8
Codec ID/Info : UTF-8 Plain Text
Duration : 1 h 55 min
Bit rate : 20 b/s
Count of elements : 665
Stream size : 17.2 KiB (0%)
Title : Full
Language : English
Default : No
Forced : No

Menu
00:00:00.000 : en:Глава 01
00:18:14.167 : en:Глава 02
00:40:20.000 : en:Глава 03
01:04:23.500 : en:Глава 04
01:32:54.125 : en:Глава 05
01:55:58.708 : en:Глава 06
02:07:55.917 : en:Глава 07

Другие фильмы
У данной публикации пока нет комментариев.
Будь первым, оставь своё мнение в комментариях!
Информация
Посетители, находящиеся в группе Гости, не могут оставлять комментарии к данной публикации.
Самый популярный релиз недели
WEB-DL 1080p 5.57 Gb ...

Кино копилка
...
Какую тему вы используете?

Реклама
Последние комментарии
...

Dimanchez

Сегодня, 10:12

...

lomoenot

Вчера, 16:43

...

ooofly

Вчера, 08:40

...

Laska020489

Вчера, 03:27

...

zombitto

29 сентября 2022 16:25