+4

Дикие земли / Возвышенность / High Ground (2020) BDRip-AVC от DoMiNo & селезень | D

Информация о фильме
Название: Дикие земли / Возвышенность
Оригинальное название: High Ground
Год выхода: 2020
Жанр: Боевик, триллер, драма, приключения, вестерн
Режиссер: Стивен Джонсон
В ролях: Джейкоб Джуниор Найинггул, Саймон Бейкер, Каллэн Мулвей, Аарон Педерсен, Райан Корр, Карен Писториус, Джек Томпсон, Витияна Марика, Шон Мунунггурр, Эсмерельда Маримова

О фильме:
В попытке спасти своего последнего оставшегося в живых родственника, молодой абориген отправляется с бывшим солдатом вглубь диких земель Австралии. Им предстоит найти самого опасного воина континента, ведущего борьбу с колонизаторами.

Страна: Австралия
Студия: Bunya Productions, Maxo, Savage Films
Продолжительность: 01:44:40
Перевод: Дублированный | Paragraph Media
Субтитры: Русские (Forced, Full (Гугл)), Английские (Forced, Full)

Файл
Формат: Matroska
Качество: BDRip-AVC
Видео: 1024x618 at 23.976 fps, [email protected], ~2930 kbps
Аудио 1: AC3, 6 ch, ~448 kbps - | Русский | Дикие земли / Возвышенность / High Ground (2020) BDRip-AVC от DoMiNo & селезень | D
Аудио 2: AC3, 6 ch, ~448 kbps - | Английский |
Формат субтитров: softsub (SRT)

Дикие земли / Возвышенность / High Ground (2020) BDRip-AVC от DoMiNo & селезень | D

Авторизуйтесь для получения доступа к скачиванию

Нет аккаунта? Регистрация открыта и займёт меньше минуты

Вход Регистрация

x264 [info]: frame I:1402 Avg QP:17.20 size:107587
x264 [info]: frame P:39430 Avg QP:19.11 size: 31013
x264 [info]: frame B:109889 Avg QP:20.43 size: 8430
x264 [info]: consecutive B-frames: 4.9% 5.1% 14.3% 25.6% 17.0% 23.9% 3.9% 1.1% 1.0% 0.5% 0.6% 0.5% 0.5%

General
Unique ID : 202400216493274565006483167466572358452 (0x9844DD1FFF3C450A326627B1998A2334)
Complete name : L:High.Ground.2020.BDRip.x264.seleZen.mkv
Format : Matroska
Format version : Version 4
File size : 2.80 GiB
Duration : 1 h 44 min
Overall bit rate : 3 829 kb/s
Movie name : High.Ground.2020.BDRip.x264.seleZen
Encoded date : UTC 2022-08-16 13:46:44
Writing application : mkvmerge v70.0.0 ('Caught A Lite Sneeze') 64-bit
Writing library : libebml v1.4.2 + libmatroska v1.6.4
Cover : Yes
Attachments : cover.jpg / small_cover.jpg

Video
ID : 1
Format : AVC
Format/Info : Advanced Video Codec
Format profile : [email protected]
Format settings : CABAC / 13 Ref Frames
Format settings, CABAC : Yes
Format settings, Reference : 13 frames
Codec ID : V_MPEG4/ISO/AVC
Duration : 1 h 44 min
Bit rate : 2 930 kb/s
Width : 1 024 pixels
Height : 618 pixels
Display aspect ratio : 5:3
Frame rate mode : Constant
Frame rate : 24.000 FPS
Color space : YUV
Chroma subsampling : 4:2:0
Bit depth : 8 bits
Scan type : Progressive
Bits/(Pixel*Frame) : 0.193
Stream size : 2.14 GiB (77%)
Title : -=DoMiNo=-
Writing library : x264 core 164 by -=DoMiNo=-
Encoding settings : cabac=1 / ref=13 / deblock=1:-3:-3 / analyse=0x3:0x133 / me=umh / subme=11 / psy=1 / psy_rd=1.04:0.01 / mixed_ref=1 / me_range=32 / chroma_me=1 / trellis=2 / 8x8dct=1 / cqm=0 / deadzone=21,11 / fast_pskip=0 / chroma_qp_offset=-3 / threads=19 / lookahead_threads=4 / sliced_threads=0 / nr=0 / decimate=0 / interlaced=0 / bluray_compat=0 / constrained_intra=0 / bframes=12 / b_pyramid=2 / b_adapt=2 / b_bias=0 / direct=1 / weightb=1 / open_gop=0 / weightp=2 / keyint=250 / keyint_min=24 / scenecut=40 / intra_refresh=0 / rc_lookahead=60 / rc=crf / mbtree=0 / crf=19.0 / qcomp=0.65 / qpmin=0 / qpmax=69 / qpstep=4 / vbv_maxrate=50000 / vbv_bufsize=62500 / crf_max=0.0 / nal_hrd=none / filler=0 / ip_ratio=1.30 / pb_ratio=1.20 / aq=3:0.80
Language : English
Default : Yes
Forced : No
Color range : Limited
Color primaries : BT.709
Transfer characteristics : BT.709
Matrix coefficients : BT.709

Audio #1
ID : 2
Format : AC-3
Format/Info : Audio Coding 3
Commercial name : Dolby Digital
Codec ID : A_AC3
Duration : 1 h 44 min
Bit rate mode : Constant
Bit rate : 448 kb/s
Channel(s) : 6 channels
Channel layout : L R C LFE Ls Rs
Sampling rate : 48.0 kHz
Frame rate : 31.250 FPS (1536 SPF)
Compression mode : Lossy
Stream size : 335 MiB (12%)
Title : DUB (Paragraph Media)
Language : Russian
Service kind : Complete Main
Default : Yes
Forced : Yes

Audio #2
ID : 3
Format : AC-3
Format/Info : Audio Coding 3
Commercial name : Dolby Digital
Codec ID : A_AC3
Duration : 1 h 44 min
Bit rate mode : Constant
Bit rate : 448 kb/s
Channel(s) : 6 channels
Channel layout : L R C LFE Ls Rs
Sampling rate : 48.0 kHz
Frame rate : 31.250 FPS (1536 SPF)
Compression mode : Lossy
Stream size : 335 MiB (12%)
Title : Original
Language : English
Service kind : Complete Main
Default : No
Forced : No

Text #1
ID : 4
Format : UTF-8
Codec ID : S_TEXT/UTF8
Codec ID/Info : UTF-8 Plain Text
Duration : 1 h 35 min
Bit rate : 14 b/s
Count of elements : 214
Stream size : 9.84 KiB (0%)
Title : Forced
Language : Russian
Default : Yes
Forced : No

Text #2
ID : 5
Format : UTF-8
Codec ID : S_TEXT/UTF8
Codec ID/Info : UTF-8 Plain Text
Duration : 1 h 35 min
Bit rate : 50 b/s
Count of elements : 906
Stream size : 35.4 KiB (0%)
Title : Full
Language : Russian
Default : No
Forced : No

Text #3
ID : 6
Format : UTF-8
Codec ID : S_TEXT/UTF8
Codec ID/Info : UTF-8 Plain Text
Duration : 1 h 24 min
Bit rate : 8 b/s
Count of elements : 207
Stream size : 5.13 KiB (0%)
Title : Forced
Language : English
Default : No
Forced : No

Text #4
ID : 7
Format : UTF-8
Codec ID : S_TEXT/UTF8
Codec ID/Info : UTF-8 Plain Text
Duration : 1 h 30 min
Bit rate : 29 b/s
Count of elements : 742
Stream size : 19.3 KiB (0%)
Title : Full
Language : English
Default : No
Forced : No

Menu
00:00:00.000 : en:Chapter 01
00:02:20.208 : en:Chapter 02
00:06:05.083 : en:Chapter 03
00:14:14.625 : en:Chapter 04
00:20:32.916 : en:Chapter 05
00:26:07.791 : en:Chapter 06
00:37:07.291 : en:Chapter 07
00:49:56.333 : en:Chapter 08
00:58:28.083 : en:Chapter 09
01:08:08.708 : en:Chapter 10
01:20:08.833 : en:Chapter 11
01:35:24.791 : en:Chapter 12

Другие фильмы
У данной публикации пока нет комментариев.
Будь первым, оставь своё мнение в комментариях!
Информация
Посетители, находящиеся в группе Гости, не могут оставлять комментарии к данной публикации.
Самый популярный релиз недели
WEB-DL 1080p 5.57 Gb ...

Кино копилка
...
Какую тему вы используете?

Реклама
Последние комментарии
...

Dimanchez

Сегодня, 10:12

...

lomoenot

Вчера, 16:43

...

ooofly

Вчера, 08:40

...

Laska020489

Вчера, 03:27

...

zombitto

29 сентября 2022 16:25