+1

Память / Memoria (2021) BDRip 720p от селезень | P | Кинопоиск HD

Информация о фильме
Название: Память
Оригинальное название: Memoria
Год выхода: 2021
Жанр: фантастика, драма
Режиссер: Апитчатпон Вирасетакул
В ролях: Тильда Суинтон, Агнес Брекке, Даниэль Хименес Качо, Жеронимо Барон, Хуан Пабло Уррего, Жанна Балибар, Айда Моралес, Констанца Гутьеррез, Элькин Диас, Дэниэл Торо

О фильме: Джессика, специалист по выращиванию орхидей, приезжает в Колумбию, чтобы ухаживать за сестрой, находящейся в состоянии сна. Но и сама Джессика практически теряет покой - ее преследует странный звук, похожий то ли на взрыв, то ли на мощный удар, который тревожит и лишает сна. Пытаясь понять его происхождение, героиня все больше теряет связь с тем, что принято считать реальностью.

Страна: Колумбия, Таиланд, Франция, Германия, Мексика, Катар, Великобритания, Китай, Швейцария
Студия: 185 Films, Anna Sanders Films, Beijing Contemporary Art foundation, Bord Cadre Films, Burning Blue, Centre National de la Cinématographie (CNC), Doha Film Institute, Eficine, Hubert Bals Fund, Illuminations Films, Kick the Machine, L'Aide aux Cinémas du Monde, Labodigital, Louverture Films, Match Factory, The, Medienboard Berlin-Brandenburg, Ministère des Affaires Étrangères, Piano, Proimágenes Colombia, Purin Foundation, Rediance, Sovereign Films (II), Xstream Pictures, ZDF/Arte
Продолжительность: 02:15:48
Перевод: Профессиональный многоголосый | Кинопоиск HD

Качество: BDRip 720p
Видео: MPEG-4 AVC, 1280x692, 5786 Kbit/s, 24.000 fps
Аудио #01: 48 kHz, AC3, 5.1, 448 Kbps | Профессиональный многоголосый | Кинопоиск HD | RUS |Память / Memoria (2021) BDRip 720p от селезень | P | Кинопоиск HD
Аудио #02: 48 kHz, E-AC3, 5.1, 448 Kbps | Профессиональный многоголосый | Кинопоиск HD | RUS |
Аудио #03: 48 kHz, AC3, 5.1, 640 Kbps | Оригинал | ENG |
Субтитры: Русские (Full), английские

Память / Memoria (2021) BDRip 720p от селезень | P | Кинопоиск HD

Авторизуйтесь для получения доступа к скачиванию

Нет аккаунта? Регистрация открыта и займёт меньше минуты

Вход Регистрация

General
Unique ID : 29674045224923693189824428745034447844 (0x16530362D7DEA05D1D88DA39515A3BE4)
Complete name : F:\Video\Memoria.2021.BDRip.720p.seleZen.mkv
Format : Matroska
Format version : Version 4
File size : 6.95 GiB
Duration : 2 h 15 min
Overall bit rate : 7 322 kb/s
Movie name : Memoria 2021 from seleZen
Encoded date : UTC 2022-08-16 11:22:55
Writing application : mkvmerge v59.0.0 ('Shining Star') 64-bit
Writing library : libebml v1.4.2 + libmatroska v1.6.4

Video
ID : 1
Format : AVC
Format/Info : Advanced Video Codec
Format profile : [email protected]
Format settings : CABAC / 9 Ref Frames
Format settings, CABAC : Yes
Format settings, Reference : 9 frames
Codec ID : V_MPEG4/ISO/AVC
Duration : 2 h 15 min
Bit rate : 5 786 kb/s
Width : 1 280 pixels
Height : 692 pixels
Display aspect ratio : 1.85:1
Frame rate mode : Constant
Frame rate : 24.000 FPS
Color space : YUV
Chroma subsampling : 4:2:0
Bit depth : 8 bits
Scan type : Progressive
Bits/(Pixel*Frame) : 0.272
Stream size : 5.49 GiB (79%)
Writing library : x264 core 164 r3085+55M seleZen t_mod_New [(8 & 10)[email protected] X86_64]
Encoding settings : cabac=1 / ref=9 / deblock=1:-2:-2 / analyse=0x3:0x133 / me=umh / subme=10 / psy=1 / fade_compensate=0.00 / psy_rd=1.01:0.01 / mixed_ref=1 / me_range=32 / chroma_me=1 / trellis=2 / 8x8dct=1 / cqm=0 / deadzone=21,11 / fast_pskip=0 / chroma_qp_offset=-3 / threads=22 / lookahead_threads=3 / sliced_threads=0 / nr=0 / decimate=0 / interlaced=0 / bluray_compat=0 / constrained_intra=0 / fgo=0 / bframes=9 / b_pyramid=2 / b_adapt=2 / b_bias=0 / direct=3 / weightb=1 / open_gop=0 / weightp=2 / keyint=240 / keyint_min=23 / scenecut=40 / intra_refresh=0 / rc_lookahead=60 / rc=2pass / mbtree=0 / bitrate=5786 / ratetol=1.0 / qcomp=0.60 / qpmin=0:0:0 / qpmax=51:51:51 / qpstep=4 / cplxblur=20.0 / qblur=0.5 / vbv_maxrate=50000 / vbv_bufsize=62500 / nal_hrd=none / filler=0 / ip_ratio=1.40 / pb_ratio=1.30 / aq=3:0.80 / aq-sensitivity=10.00 / aq-factor=1.00:1.00:1.00 / aq2=0 / aq3=0
Language : English
Default : Yes
Forced : No

Audio #1
ID : 2
Format : AC-3
Format/Info : Audio Coding 3
Commercial name : Dolby Digital
Codec ID : A_AC3
Duration : 2 h 15 min
Bit rate mode : Constant
Bit rate : 448 kb/s
Channel(s) : 6 channels
Channel layout : L R C LFE Ls Rs
Sampling rate : 48.0 kHz
Frame rate : 31.250 FPS (1536 SPF)
Compression mode : Lossy
Stream size : 435 MiB (6%)
Title : MVO [Kinopoisk HD]
Language : Russian
Service kind : Complete Main
Default : Yes
Forced : Yes

Audio #2
ID : 3
Format : E-AC-3
Format/Info : Enhanced AC-3
Commercial name : Dolby Digital Plus
Codec ID : A_EAC3
Duration : 2 h 15 min
Bit rate mode : Constant
Bit rate : 448 kb/s
Channel(s) : 6 channels
Channel layout : L R C LFE Ls Rs
Sampling rate : 48.0 kHz
Frame rate : 31.250 FPS (1536 SPF)
Compression mode : Lossy
Stream size : 435 MiB (6%)
Title : MVO [Kinopoisk HD]
Language : Russian
Service kind : Complete Main
Default : No
Forced : No

Audio #3
ID : 4
Format : AC-3
Format/Info : Audio Coding 3
Commercial name : Dolby Digital
Codec ID : A_AC3
Duration : 2 h 15 min
Bit rate mode : Constant
Bit rate : 640 kb/s
Channel(s) : 6 channels
Channel layout : L R C LFE Ls Rs
Sampling rate : 48.0 kHz
Frame rate : 31.250 FPS (1536 SPF)
Compression mode : Lossy
Stream size : 622 MiB (9%)
Title : Original
Language : English
Service kind : Complete Main
Default : No
Forced : No

Text #1
ID : 5
Format : UTF-8
Codec ID : S_TEXT/UTF8
Codec ID/Info : UTF-8 Plain Text
Duration : 1 h 55 min
Bit rate : 32 b/s
Frame rate : 0.081 FPS
Count of elements : 564
Stream size : 27.4 KiB (0%)
Title : Full
Language : Russian
Default : No
Forced : No

Text #2
ID : 6
Format : UTF-8
Codec ID : S_TEXT/UTF8
Codec ID/Info : UTF-8 Plain Text
Duration : 1 h 55 min
Bit rate : 20 b/s
Frame rate : 0.096 FPS
Count of elements : 665
Stream size : 17.2 KiB (0%)
Title : Full
Language : English
Default : No
Forced : No

Menu
00:00:00.000 : Глава 01
00:18:14.167 : Глава 02
00:40:20.000 : Глава 03
01:04:23.500 : Глава 04
01:32:54.125 : Глава 05
01:55:58.708 : Глава 06
02:07:55.917 : Глава 07

Другие фильмы
У данной публикации пока нет комментариев.
Будь первым, оставь своё мнение в комментариях!
Информация
Посетители, находящиеся в группе Гости, не могут оставлять комментарии к данной публикации.
Самый популярный релиз недели
WEB-DL 1080p 5.57 Gb ...

Кино копилка
...
Какую тему вы используете?

Реклама
Последние комментарии
...

Dimanchez

Сегодня, 10:12

...

lomoenot

Вчера, 16:43

...

ooofly

Вчера, 08:40

...

Laska020489

Вчера, 03:27

...

zombitto

29 сентября 2022 16:25