+4

НЛО / UFO (2018) WEB-DLRip 720p от DoMiNo & селезень | iTunes

Информация о фильме
Название: НЛО
Оригинальное название: UFO
Год выхода: 2018
Жанр: Фантастика, триллер, драма, детектив
Режиссер: Райан Эслинджер
В ролях: Алекс Шарп, Элла Пёрнелл, Бенжамин Битти, Дэвид Стрэтэйрн, Дилан Кит Адамс, Дженнифер Алексис, Джиллиан Андерсон, Марк Энджел, Кэтлин Эшкрафт

О фильме:
История одарённого студента, с детства увлечённого идеей о встрече с инопланетянами и поисками НЛО. Героя интересуют слухи о присутствии НЛО в нескольких аэропортах, сам же он привлекает внимание спецслужб.

Страна: США
Студия: Story Mining & Supply Co.
Продолжительность: 01:28:27
Перевод: Профессиональный (многоголосый, закадровый) | iTunes
Субтитры: Русские (Full), украинские, английские

Файл
Формат: Matroska
Качество: WEB-DLRip 720p | AMZN
Видео: 1272×530 at 23.976 fps, [email protected], ~1746 kbps
Аудио 1: AC3, 6 ch, ~384 kbps — | Русский | НЛО / UFO (2018) WEB-DLRip 720p от DoMiNo & селезень | iTunes
Аудио 2: AC3, 6 ch, ~384 kbps — | Английский |
Формат субтитров: softsub (SRT)

НЛО / UFO (2018) WEB-DLRip 720p от DoMiNo & селезень | iTunes

Авторизуйтесь для получения доступа к скачиванию

Нет аккаунта? Регистрация открыта и займёт меньше минуты

Вход Регистрация

x264 [info]: frame I:921 Avg QP:15.46 size: 60979
x264 [info]: frame P:26455 Avg QP:16.27 size: 20424
x264 [info]: frame B:99859 Avg QP:17.99 size: 5625

General
Unique ID : 205778995208842402714574548189539790835 (0×9ACF97C6F984CE456AA59F0C0604EFF3)
Complete name : K:UFO.2018.WEB-DLRip.720p.x264.seleZen.mkv
Format : Matroska
Format version : Version 4
File size : 1.55 GiB
Duration : 1 h 28 min
Overall bit rate : 2 517 kb/s
Movie name : UFO.2018.WEB-DLRip.720p.x264.seleZen
Encoded date : UTC 16.08.2022 08:35:14
Writing application : mkvmerge v70.0.0 ('Caught A Lite Sneeze') 64-bit
Writing library : libebml v1.4.2 + libmatroska v1.6.4
Cover : Yes
Attachments : cover.jpg / small_cover.jpg

Video
ID : 1
Format : AVC
Format/Info : Advanced Video Codec
Format profile : [email protected]
Format settings : CABAC / 12 Ref Frames
Format settings, CABAC : Yes
Format settings, Reference : 12 frames
Codec ID : V_MPEG4/ISO/AVC
Duration : 1 h 28 min
Bit rate : 1 746 kb/s
Width : 1 272 pixels
Height : 530 pixels
Display aspect ratio : 2.40:1
Frame rate mode : Constant
Frame rate : 23.976 (24000/1001) FPS
Color space : YUV
Chroma subsampling : 4:2:0
Bit depth : 8 bits
Scan type : Progressive
Bits/(Pixel*Frame) : 0.108
Stream size : 1.08 GiB (69%)
Title : -=DoMiNo=-
Writing library : x264 core 164 by -=DoMiNo=-
Encoding settings : cabac=1 / ref=12 / deblock=1:-3:-3 / analyse=0×3:0×133 / me=umh / subme=9 / psy=1 / psy_rd=1.05:0.15 / mixed_ref=1 / me_range=32 / chroma_me=1 / trellis=2 / 8×8dct=1 / cqm=0 / deadzone=21,11 / fast_pskip=0 / chroma_qp_offset=-3 / threads=17 / lookahead_threads=2 / sliced_threads=0 / nr=0 / decimate=0 / interlaced=0 / bluray_compat=0 / constrained_intra=0 / bframes=9 / b_pyramid=2 / b_adapt=2 / b_bias=0 / direct=1 / weightb=1 / open_gop=0 / weightp=2 / keyint=250 / keyint_min=23 / scenecut=40 / intra_refresh=0 / rc_lookahead=60 / rc=crf / mbtree=0 / crf=20.3 / qcomp=0.65 / qpmin=0 / qpmax=69 / qpstep=4 / vbv_maxrate=50000 / vbv_bufsize=62500 / crf_max=0.0 / nal_hrd=none / filler=0 / ip_ratio=1.30 / pb_ratio=1.28 / aq=3:0.90
Language : English
Default : Yes
Forced : No
Color range : Limited
Color primaries : BT.709
Transfer characteristics : BT.709
Matrix coefficients : BT.709

Audio #1
ID : 2
Format : AC-3
Format/Info : Audio Coding 3
Commercial name : Dolby Digital
Codec ID : A_AC3
Duration : 1 h 28 min
Bit rate mode : Constant
Bit rate : 384 kb/s
Channel (s) : 6 channels
Channel layout : L R C LFE Ls Rs
Sampling rate : 48.0 kHz
Frame rate : 31.250 FPS (1536 SPF)
Compression mode : Lossy
Stream size : 243 MiB (15%)
Title : MVO [iTunes]
Language : Russian
Service kind : Complete Main
Default : Yes
Forced : Yes

Audio #2
ID : 3
Format : AC-3
Format/Info : Audio Coding 3
Commercial name : Dolby Digital
Codec ID : A_AC3
Duration : 1 h 28 min
Bit rate mode : Constant
Bit rate : 384 kb/s
Channel (s) : 6 channels
Channel layout : L R C LFE Ls Rs
Sampling rate : 48.0 kHz
Frame rate : 31.250 FPS (1536 SPF)
Compression mode : Lossy
Stream size : 243 MiB (15%)
Title : Original
Language : English
Service kind : Complete Main
Default : No
Forced : No

Text #1
ID : 4
Format : UTF-8
Codec ID : S_TEXT/UTF8
Codec ID/Info : UTF-8 Plain Text
Duration : 1 h 28 min
Bit rate : 90 b/s
Count of elements : 1001
Stream size : 58.2 KiB (0%)
Title : Full
Language : Russian
Default : No
Forced : No

Text #2
ID : 5
Format : UTF-8
Codec ID : S_TEXT/UTF8
Codec ID/Info : UTF-8 Plain Text
Duration : 1 h 28 min
Bit rate : 91 b/s
Count of elements : 1000
Stream size : 59.3 KiB (0%)
Title : Full
Language : Ukrainian
Default : No
Forced : No

Text #3
ID : 6
Format : UTF-8
Codec ID : S_TEXT/UTF8
Codec ID/Info : UTF-8 Plain Text
Duration : 1 h 22 min
Bit rate : 67 b/s
Count of elements : 1033
Stream size : 41.2 KiB (0%)
Title : Full
Language : English
Default : No
Forced : No

Menu
00:00:00.000 : en:Глава 01
00:12:30.000 : en:Глава 02
00:25:00.000 : en:Глава 03
00:37:30.000 : en:Глава 04
00:50:00.000 : en:Глава 05
01:02:30.000 : en:Глава 06
01:15:00.000 : en:Глава 07
01:27:30.000 : en:Глава 08

Другие фильмы
У данной публикации пока нет комментариев.
Будь первым, оставь своё мнение в комментариях!
Информация
Посетители, находящиеся в группе Гости, не могут оставлять комментарии к данной публикации.
Самый популярный релиз недели
WEB-DL 1080p 5.57 Gb ...

Кино копилка
...
Какую тему вы используете?

Реклама
Последние комментарии
...

Dimanchez

Сегодня, 10:12

...

lomoenot

Вчера, 16:43

...

ooofly

Вчера, 08:40

...

Laska020489

Вчера, 03:27

...

zombitto

29 сентября 2022 16:25