+3

Секретная штаб-квартира / Secret Headquarters (2022) WEB-DLRip 720p от DoMiNo & селезень | P

Информация о фильме
Название: Секретная штаб-квартира
Оригинальное название: Secret Headquarters
Год выхода: 2022
Жанр: Фантастика, боевик, комедия, приключения, семейный
Режиссер: Генри Джуст, Эриель Шульман
В ролях: Оуэн Уилсон, Майкл Пенья, Джесси Уильямс, Дэвид Ленгел, Момона Тамада, Дастин Ингрэм, Джесси Мюллер, Эбби Джеймс Уизерспун, Кит Л. Уильямс, Лайла Прюитт

О фильме:
Юный Чарли Кинкейд обнаруживает под своим домом потайную штаб-квартиру, похожую на логово супергероя. Мальчик рассказывает об этом друзьям, и все они начинают думать, что двойную жизнь ведет не кто иной, как отец Чарли.

Страна: США
Студия: Jerry Bruckheimer Films, Paramount Pictures
Продолжительность: 01:43:43
Перевод: Профессиональный (многоголосый, закадровый) | Jaskier
Субтитры: Английские (Full, SDH)

Файл
Формат: Matroska
Качество: WEB-DLRip 720p
Видео: 1272×530 at 24.000 fps, [email protected], ~2125 kbps
Аудио 1: AC3, 6 ch, ~448 kbps — | Русский | Секретная штаб-квартира / Secret Headquarters (2022) WEB-DLRip 720p от DoMiNo & селезень | P
Аудио 2: AC3, 6 ch, ~448 kbps — | Английский |
Формат субтитров: softsub (SRT)

Секретная штаб-квартира / Secret Headquarters (2022) WEB-DLRip 720p от DoMiNo & селезень | P

Авторизуйтесь для получения доступа к скачиванию

Нет аккаунта? Регистрация открыта и займёт меньше минуты

Вход Регистрация

x264 [info]: frame I:1707 Avg QP:16.60 size: 55937
x264 [info]: frame P:37772 Avg QP:17.98 size: 21237
x264 [info]: frame B:109874 Avg QP:19.60 size: 6871
x264 [info]: consecutive B-frames: 3,0% 5,0% 10,4% 44,8% 12,5% 17,2% 3,8% 2,3% 0,5% 0,2% 0,3%

General
Unique ID : 143262065377590989503541634542349928748 (0×6BC745293DD79CD9A9AA2A2B0A75492 °C)
Complete name : L:Secret.Headquarters.2021.WEB-DLRip.720p.x264.seleZen.mkv
Format : Matroska
Format version : Version 4
File size : 2.19 GiB
Duration : 1 h 43 min
Overall bit rate : 3 023 kb/s
Movie name : Secret.Headquarters.2021.WEB-DLRip.720p.x264.seleZen
Encoded date : UTC 15.08.2022 18:04:03
Writing application : mkvmerge v70.0.0 ('Caught A Lite Sneeze') 64-bit
Writing library : libebml v1.4.2 + libmatroska v1.6.4
Cover : Yes
Attachments : cover.jpg / small_cover.jpg

Video
ID : 1
Format : AVC
Format/Info : Advanced Video Codec
Format profile : [email protected]
Format settings : CABAC / 12 Ref Frames
Format settings, CABAC : Yes
Format settings, Reference : 12 frames
Codec ID : V_MPEG4/ISO/AVC
Duration : 1 h 43 min
Bit rate : 2 125 kb/s
Width : 1 272 pixels
Height : 530 pixels
Display aspect ratio : 2.40:1
Frame rate mode : Constant
Frame rate : 24.000 FPS
Color space : YUV
Chroma subsampling : 4:2:0
Bit depth : 8 bits
Scan type : Progressive
Bits/(Pixel*Frame) : 0.131
Stream size : 1.54 GiB (70%)
Title : -=DoMiNo=-
Writing library : x264 core 164 by -=DoMiNo=-
Encoding settings : cabac=1 / ref=12 / deblock=1:-3:-3 / analyse=0×3:0×133 / me=umh / subme=9 / psy=1 / psy_rd=1.03:0.02 / mixed_ref=1 / me_range=32 / chroma_me=1 / trellis=2 / 8×8dct=1 / cqm=0 / deadzone=21,11 / fast_pskip=0 / chroma_qp_offset=-3 / threads=17 / lookahead_threads=4 / sliced_threads=0 / nr=0 / decimate=0 / interlaced=0 / bluray_compat=0 / constrained_intra=0 / bframes=10 / b_pyramid=2 / b_adapt=2 / b_bias=0 / direct=1 / weightb=1 / open_gop=0 / weightp=2 / keyint=250 / keyint_min=24 / scenecut=40 / intra_refresh=0 / rc_lookahead=60 / rc=crf / mbtree=0 / crf=20.5 / qcomp=0.65 / qpmin=0 / qpmax=69 / qpstep=4 / vbv_maxrate=50000 / vbv_bufsize=62500 / crf_max=0.0 / nal_hrd=none / filler=0 / ip_ratio=1.30 / pb_ratio=1.20 / aq=3:0.80
Language : English
Default : Yes
Forced : No

Audio #1
ID : 2
Format : AC-3
Format/Info : Audio Coding 3
Commercial name : Dolby Digital
Codec ID : A_AC3
Duration : 1 h 43 min
Bit rate mode : Constant
Bit rate : 448 kb/s
Channel (s) : 6 channels
Channel layout : L R C LFE Ls Rs
Sampling rate : 48.0 kHz
Frame rate : 31.250 FPS (1536 SPF)
Compression mode : Lossy
Stream size : 332 MiB (15%)
Title : MVO [Jaskier]
Language : Russian
Service kind : Complete Main
Default : Yes
Forced : Yes

Audio #2
ID : 3
Format : AC-3
Format/Info : Audio Coding 3
Commercial name : Dolby Digital
Codec ID : A_AC3
Duration : 1 h 43 min
Bit rate mode : Constant
Bit rate : 448 kb/s
Channel (s) : 6 channels
Channel layout : L R C LFE Ls Rs
Sampling rate : 48.0 kHz
Frame rate : 31.250 FPS (1536 SPF)
Compression mode : Lossy
Stream size : 332 MiB (15%)
Title : Original
Language : English
Service kind : Complete Main
Default : No
Forced : No

Text #1
ID : 4
Format : UTF-8
Codec ID : S_TEXT/UTF8
Codec ID/Info : UTF-8 Plain Text
Duration : 1 h 43 min
Bit rate : 73 b/s
Count of elements : 1774
Stream size : 55.3 KiB (0%)
Title : Full
Language : English
Default : No
Forced : No

Text #2
ID : 5
Format : UTF-8
Codec ID : S_TEXT/UTF8
Codec ID/Info : UTF-8 Plain Text
Duration : 1 h 43 min
Bit rate : 79 b/s
Count of elements : 1907
Stream size : 60.4 KiB (0%)
Title : SDH
Language : English
Default : No
Forced : No

Menu
01:43:38.000 : en:Credits

Другие фильмы
У данной публикации пока нет комментариев.
Будь первым, оставь своё мнение в комментариях!
Информация
Посетители, находящиеся в группе Гости, не могут оставлять комментарии к данной публикации.
Самый популярный релиз недели
WEB-DL 1080p 5.57 Gb ...

Кино копилка
...
Какую тему вы используете?

Реклама
Последние комментарии
...

Dimanchez

Сегодня, 10:12

...

lomoenot

Вчера, 16:43

...

ooofly

Вчера, 08:40

...

Laska020489

Вчера, 03:27

...

zombitto

29 сентября 2022 16:25