+3

Секретная штаб-квартира / Secret Headquarters (2022) WEB-DL 1080p от селезень | P

Информация о фильме
Название: Секретная штаб-квартира
Оригинальное название: Secret Headquarters
Год выхода: 2022
Жанр: фантастика, боевик, комедия, приключения, семейный
Режиссер: Генри Джуст, Эриель Шульман
В ролях: Оуэн Уилсон, Джесси Уильямс, Уокер Скобелл, Майкл Пенья, Леви Трэн, Момона Тамада, Джесси Мюллер, Эбби Джеймс Уизерспун, Дастин Ингрэм, Кит Л. Уильямс

О фильме: Подросток случайно обнаруживает в подполье собственного дома тайное убежище самого могущественного супергероя на планете. Вместе с друзьями ему придется защищать этот штаб от внезапно напавших злодеев.

Страна: США
Студия: Jerry Bruckheimer Films, Paramount Pictures
Продолжительность: 01:43:43
Перевод: Профессиональный многоголосый | Jaskier

Качество: WEB-DL 1080p
Видео: MPEG-4 AVC, 1920x800, 7129 Kbit/s, 24.000 fps
Аудио #01: 48 kHz, AC3, 5.1, 448 Kbps | Профессиональный многоголосый | Jaskier | RUS |Секретная штаб-квартира / Secret Headquarters (2022) WEB-DL 1080p от селезень | P
Аудио #02: 48 kHz, E-AC3+Atmos, 5.1, 768 Kbps | Оригинал | ENG |
Субтитры: Английские

Секретная штаб-квартира / Secret Headquarters (2022) WEB-DL 1080p от селезень | P

Авторизуйтесь для получения доступа к скачиванию

Нет аккаунта? Регистрация открыта и займёт меньше минуты

Вход Регистрация

General
Unique ID : 239483547452504436173986801965858627068 (0xB42ADA807676B09AF98FBE437DBD1DFC)
Complete name : F:\Video\Secret.Headquarters.2021.AMZN.WEB-DL.1080p.seleZen.mkv
Format : Matroska
Format version : Version 4
File size : 6.05 GiB
Duration : 1 h 43 min
Overall bit rate : 8 347 kb/s
Movie name : Secret Headquarters 2021 from seleZen
Encoded date : UTC 2022-08-15 15:41:08
Writing application : mkvmerge v59.0.0 ('Shining Star') 64-bit
Writing library : libebml v1.4.2 + libmatroska v1.6.4

Video
ID : 1
Format : AVC
Format/Info : Advanced Video Codec
Format profile : [email protected]
Format settings : CABAC / 4 Ref Frames
Format settings, CABAC : Yes
Format settings, Reference : 4 frames
Codec ID : V_MPEG4/ISO/AVC
Duration : 1 h 43 min
Bit rate mode : Constant
Bit rate : 7 129 kb/s
Nominal bit rate : 10 000 kb/s
Width : 1 920 pixels
Height : 800 pixels
Display aspect ratio : 2.40:1
Frame rate mode : Constant
Frame rate : 24.000 FPS
Color space : YUV
Chroma subsampling : 4:2:0
Bit depth : 8 bits
Scan type : Progressive
Bits/(Pixel*Frame) : 0.193
Stream size : 5.16 GiB (85%)
Language : English
Default : No
Forced : No
Color range : Limited
Color primaries : BT.709
Transfer characteristics : BT.709
Matrix coefficients : BT.709

Audio #1
ID : 2
Format : AC-3
Format/Info : Audio Coding 3
Commercial name : Dolby Digital
Codec ID : A_AC3
Duration : 1 h 43 min
Bit rate mode : Constant
Bit rate : 448 kb/s
Channel(s) : 6 channels
Channel layout : L R C LFE Ls Rs
Sampling rate : 48.0 kHz
Frame rate : 31.250 FPS (1536 SPF)
Compression mode : Lossy
Stream size : 332 MiB (5%)
Title : MVO [Jaskier]
Language : Russian
Service kind : Complete Main
Default : Yes
Forced : Yes

Audio #2
ID : 3
Format : E-AC-3 JOC
Format/Info : Enhanced AC-3 with Joint Object Coding
Commercial name : Dolby Digital Plus with Dolby Atmos
Codec ID : A_EAC3
Duration : 1 h 43 min
Bit rate mode : Constant
Bit rate : 768 kb/s
Channel(s) : 6 channels
Channel layout : L R C LFE Ls Rs
Sampling rate : 48.0 kHz
Frame rate : 31.250 FPS (1536 SPF)
Compression mode : Lossy
Delay relative to video : 23 ms
Stream size : 570 MiB (9%)
Title : Original
Language : English
Service kind : Complete Main
Default : No
Forced : No
Complexity index : 16
Number of dynamic objects : 15
Bed channel count : 1 channel
Bed channel configuration : LFE

Text #1
ID : 4
Format : UTF-8
Codec ID : S_TEXT/UTF8
Codec ID/Info : UTF-8 Plain Text
Duration : 1 h 43 min
Bit rate : 73 b/s
Frame rate : 0.286 FPS
Count of elements : 1774
Stream size : 55.3 KiB (0%)
Title : Full
Language : English
Default : No
Forced : No

Text #2
ID : 5
Format : UTF-8
Codec ID : S_TEXT/UTF8
Codec ID/Info : UTF-8 Plain Text
Duration : 1 h 43 min
Bit rate : 79 b/s
Frame rate : 0.307 FPS
Count of elements : 1907
Stream size : 60.4 KiB (0%)
Title : SDH
Language : English
Default : No
Forced : No

Menu
01:43:38.000 : Credits

Другие фильмы
У данной публикации пока нет комментариев.
Будь первым, оставь своё мнение в комментариях!
Информация
Посетители, находящиеся в группе Гости, не могут оставлять комментарии к данной публикации.
Самый популярный релиз недели
WEB-DL 1080p 5.57 Gb ...

Кино копилка
...
Какую тему вы используете?

Реклама
Последние комментарии
...

Dimanchez

Сегодня, 10:12

...

lomoenot

Вчера, 16:43

...

ooofly

Вчера, 08:40

...

Laska020489

Вчера, 03:27

...

zombitto

29 сентября 2022 16:25