+4

Ты мне не мать / You Are Not My Mother (2021) BDRip 720p от селезень | A

Информация о фильме
Название: Ты мне не мать
Оригинальное название: You Are Not My Mother
Год выхода: 2021
Жанр: ужасы, драма
Режиссер: Кейт Долан
В ролях: Хэйзел Дуп, Кэролин Брекен, Пол Рейд, Джейд Джордан, Джордан Джонс, Ингрид Крейги, Мириам Дэвитт, Мартин О’Салливан

О фильме:
Незадолго до Хэллоуина прикованная к постели женщина внезапно исчезает и вскоре так же неожиданно объявляется живая и вроде бы здоровая. Но чем ближе День всех святых, тем более странным и пугающим становится её поведение. Чтобы спасти мать и самой остаться в живых, её дочери-подростку предстоит разобраться не только в преданиях родной земли, но и в страшных семейных тайнах.

Страна: Ирландия
Студия: Bankside Films, Fantastic Films Ltd., Irish Film Board
Продолжительность: 01:33:11
Перевод: Авторский (Есарев Дмитрий)
Субтитры: Русские (Full), Английские (Full, SDH)

Файл
Формат: Matroska
Качество: BDRip 720p
Видео: 1280×536 at 23.976 fps, [email protected], ~3531 kbps
Аудио 1: AC3, 6 ch, ~384 kbps — | Русский | Ты мне не мать / You Are Not My Mother (2021) BDRip 720p от селезень | A
Аудио 2: AC3, 6 ch, ~640 kbps — | Английский |
Формат субтитров: softsub (SRT)

Ты мне не мать / You Are Not My Mother (2021) BDRip 720p от селезень | A

Авторизуйтесь для получения доступа к скачиванию

Нет аккаунта? Регистрация открыта и займёт меньше минуты

Вход Регистрация

General
Unique ID : 276252396480148782994945515853239899531 (0xCFD446B8E8AB563020F16AADC4E5558B)
Complete name : D:DELtYou.Are.Not.My.Mother.2021.BDRip.720p.x264.seleZen.mkv
Format : Matroska
Format version : Version 4
File size : 2.97 GiB
Duration : 1 h 33 min
Overall bit rate : 4 557 kb/s
Movie name : You.Are.Not.My.Mother.2021.BDRip.720p.x264.seleZen
Encoded date : UTC 15.08.2022 15:03:00
Writing application : mkvmerge v70.0.0 ('Caught A Lite Sneeze') 64-bit
Writing library : libebml v1.4.2 + libmatroska v1.6.4
Cover : Yes
Attachments : cover.jpg / small_cover.jpg

Video
ID : 1
Format : AVC
Format/Info : Advanced Video Codec
Format profile : [email protected]
Format settings : CABAC / 12 Ref Frames
Format settings, CABAC : Yes
Format settings, Reference : 12 frames
Codec ID : V_MPEG4/ISO/AVC
Duration : 1 h 33 min
Bit rate : 3 531 kb/s
Width : 1 280 pixels
Height : 536 pixels
Display aspect ratio : 2.40:1
Frame rate mode : Constant
Frame rate : 23.976 (24000/1001) FPS
Color space : YUV
Chroma subsampling : 4:2:0
Bit depth : 8 bits
Scan type : Progressive
Bits/(Pixel*Frame) : 0.215
Stream size : 2.30 GiB (77%)
Title : MTeam
Writing library : x264 core 157 r2938 2b00a84 [email protected] Mod
Encoding settings : cabac=1 / ref=12 / deblock=1:-3:-3 / analyse=0×3:0×133 / me=umh / subme=10 / psy=1 / psy_rd=1.05:0.00 / mixed_ref=1 / me_range=32 / chroma_me=1 / trellis=2 / 8×8dct=1 / cqm=0 / deadzone=21,11 / fast_pskip=0 / chroma_qp_offset=-2 / threads=12 / lookahead_threads=2 / sliced_threads=0 / nr=0 / decimate=0 / interlaced=0 / bluray_compat=0 / constrained_intra=0 / bframes=8 / b_pyramid=2 / b_adapt=2 / b_bias=0 / direct=3 / weightb=1 / open_gop=0 / weightp=2 / keyint=250 / keyint_min=24 / scenecut=40 / intra_refresh=0 / rc_lookahead=250 / rc=crf / mbtree=0 / crf=16.8 / qcomp=0.60 / qpmin=0 / qpmax=69 / qpstep=4 / vbv_maxrate=62500 / vbv_bufsize=78125 / crf_max=0.0 / nal_hrd=none / filler=0 / ip_ratio=1.30 / pb_ratio=1.20 / aq=3:0.80
Language : English
Default : Yes
Forced : No
Color range : Limited
Color primaries : BT.709
Matrix coefficients : BT.709

Audio #1
ID : 2
Format : AC-3
Format/Info : Audio Coding 3
Commercial name : Dolby Digital
Codec ID : A_AC3
Duration : 1 h 33 min
Bit rate mode : Constant
Bit rate : 384 kb/s
Channel (s) : 6 channels
Channel layout : L R C LFE Ls Rs
Sampling rate : 48.0 kHz
Frame rate : 31.250 FPS (1536 SPF)
Compression mode : Lossy
Stream size : 256 MiB (8%)
Title : AVO [Есарев Дмитрий]
Language : Russian
Service kind : Complete Main
Default : Yes
Forced : Yes

Audio #2
ID : 3
Format : AC-3
Format/Info : Audio Coding 3
Commercial name : Dolby Digital
Codec ID : A_AC3
Duration : 1 h 33 min
Bit rate mode : Constant
Bit rate : 640 kb/s
Channel (s) : 6 channels
Channel layout : L R C LFE Ls Rs
Sampling rate : 48.0 kHz
Frame rate : 31.250 FPS (1536 SPF)
Compression mode : Lossy
Stream size : 427 MiB (14%)
Title : Original
Language : English
Service kind : Complete Main
Default : No
Forced : No

Text #1
ID : 4
Format : UTF-8
Codec ID : S_TEXT/UTF8
Codec ID/Info : UTF-8 Plain Text
Duration : 1 h 26 min
Bit rate : 54 b/s
Count of elements : 781
Stream size : 34.9 KiB (0%)
Title : Full
Language : Russian
Default : No
Forced : No

Text #2
ID : 5
Format : UTF-8
Codec ID : S_TEXT/UTF8
Codec ID/Info : UTF-8 Plain Text
Duration : 1 h 26 min
Bit rate : 34 b/s
Count of elements : 775
Stream size : 22.3 KiB (0%)
Title : Full
Language : English
Default : No
Forced : No

Text #3
ID : 6
Format : UTF-8
Codec ID : S_TEXT/UTF8
Codec ID/Info : UTF-8 Plain Text
Duration : 1 h 27 min
Bit rate : 40 b/s
Count of elements : 941
Stream size : 26.0 KiB (0%)
Title : SDH
Language : English
Default : No
Forced : No

Menu
00:00:00.000 : en:Chapter 01
00:10:05.605 : en:Chapter 02
00:18:03.708 : en:Chapter 03
00:26:28.587 : en:Chapter 04
00:36:28.186 : en:Chapter 05
00:46:30.788 : en:Chapter 06
00:56:11.368 : en:Chapter 07
01:04:55.892 : en:Chapter 08
01:13:30.406 : en:Chapter 09
01:18:51.727 : en:Chapter 10
01:28:44.319 : en:Chapter 11

Другие фильмы
У данной публикации пока нет комментариев.
Будь первым, оставь своё мнение в комментариях!
Информация
Посетители, находящиеся в группе Гости, не могут оставлять комментарии к данной публикации.
Самый популярный релиз недели
WEB-DL 1080p 5.57 Gb ...

Кино копилка
...
Какую тему вы используете?

Реклама
Последние комментарии
...

Dimanchez

Сегодня, 10:12

...

lomoenot

Вчера, 16:43

...

ooofly

Вчера, 08:40

...

Laska020489

Вчера, 03:27

...

zombitto

29 сентября 2022 16:25