+4

Чёрная месса / El exorcismo de Carmen Farías (2021) BDRip 1080p от селезень | iTunes

Информация о фильме
Название: Чёрная месса
Оригинальное название: El exorcismo de Carmen Farías
Год выхода: 2021
Жанр: Ужасы
Режиссер: Родриго Фьяллега
В ролях: Камила Соди, Хуан Пабло Кастанеда, Хуан Карлос Коломбо, Ана Сильвия Гарса, Люси Паэс

О фильме:
Кармен — молодая девушка, она выросла в маленьком городке, но смогла выучиться на журналиста и вскоре переехала в столицу, где построила успешную карьеру. Теперь она работает репортером в модном журнале, пишет статьи про знаменитостей и наслаждается комфортной жизнью. Но однажды она получает известие о смерти пожилой матери, оставившей ей в наследство старый родительский дом. Кармен вместе с супругом возвращается в родной городок и в полузаброшенный дом, где открывает фамильную тайну, которую её семья хранила поколениями.

Страна: Мексика
Студия: Invicta Films, STG Capital
Продолжительность: 01:32:12
Перевод: Профессиональный (многоголосый, закадровый) | Велес | iTunes

Файл
Качество: BDRip 1080p
Формат: MKV
Видео: 1920×804, 23.976 fps, MPEG-4 AVC, ~10000 Kbps
Аудио 1: AC3, 6 ch, ~384 kbps — | Русский | Чёрная месса / El exorcismo de Carmen Farías (2021) BDRip 1080p от селезень | iTunes
Аудио 2: AC3, 6 ch, ~640 kbps — | Испанский  |
Субтитры: Отсутствуют

Чёрная месса / El exorcismo de Carmen Farías (2021) BDRip 1080p от селезень | iTunes

Авторизуйтесь для получения доступа к скачиванию

Нет аккаунта? Регистрация открыта и займёт меньше минуты

Вход Регистрация

General
Unique ID : 317114103239863435572345966922431770671 (0xEE91F468A4724B6C022E682A9FE4B02 °F)
Complete name : D:El.Exorcismo.de.Carmen.Farias.2021.BDRip.1080p.seleZen.mkv
Format : Matroska
Format version : Version 4
File size : 7.09 GiB
Duration : 1 h 32 min
Overall bit rate : 11.0 Mb/s
Movie name : El Exorcismo de Carmen Farias 2021 from seleZen
Encoded date : UTC 14.08.2022 19:21:39
Writing application : mkvmerge v59.0.0 ('Shining Star') 64-bit
Writing library : libebml v1.4.2 + libmatroska v1.6.4

Video
ID : 1
Format : AVC
Format/Info : Advanced Video Codec
Format profile : [email protected]
Format settings : CABAC / 5 Ref Frames
Format settings, CABAC : Yes
Format settings, Reference : 5 frames
Codec ID : V_MPEG4/ISO/AVC
Duration : 1 h 32 min
Bit rate : 10 000 kb/s
Width : 1 920 pixels
Height : 804 pixels
Display aspect ratio : 2.40:1
Frame rate mode : Constant
Frame rate : 23.976 (24000/1001) FPS
Color space : YUV
Chroma subsampling : 4:2:0
Bit depth : 8 bits
Scan type : Progressive
Bits/(Pixel*Frame) : 0.270
Stream size : 6.43 GiB (91%)
Writing library : x264 core 164 r3085+55M seleZen t_mod_New [(8 & 10)[email protected] X86_64]
Encoding settings : cabac=1 / ref=5 / deblock=1:-2:-2 / analyse=0×3:0×133 / me=umh / subme=10 / psy=1 / fade_compensate=0.00 / psy_rd=1.02:0.02 / mixed_ref=1 / me_range=32 / chroma_me=1 / trellis=2 / 8×8dct=1 / cqm=0 / deadzone=21,11 / fast_pskip=0 / chroma_qp_offset=-3 / threads=25 / lookahead_threads=4 / sliced_threads=0 / nr=0 / decimate=0 / interlaced=0 / bluray_compat=0 / constrained_intra=0 / fgo=0 / bframes=9 / b_pyramid=2 / b_adapt=2 / b_bias=0 / direct=3 / weightb=1 / open_gop=0 / weightp=2 / keyint=240 / keyint_min=23 / scenecut=40 / intra_refresh=0 / rc_lookahead=60 / rc=2pass / mbtree=0 / bitrate=10000 / ratetol=1.0 / qcomp=0.60 / qpmin=0:0:0 / qpmax=51:51:51 / qpstep=4 / cplxblur=20.0 / qblur=0.5 / vbv_maxrate=50000 / vbv_bufsize=62500 / nal_hrd=none / filler=0 / ip_ratio=1.40 / pb_ratio=1.30 / aq=3:0.80 / aq-sensitivity=10.00 / aq-factor=1.00:1.00:1.00 / aq2=0 / aq3=0
Language : English
Default : Yes
Forced : No

Audio #1
ID : 2
Format : AC-3
Format/Info : Audio Coding 3
Commercial name : Dolby Digital
Codec ID : A_AC3
Duration : 1 h 32 min
Bit rate mode : Constant
Bit rate : 384 kb/s
Channel (s) : 6 channels
Channel layout : L R C LFE Ls Rs
Sampling rate : 48.0 kHz
Frame rate : 31.250 FPS (1536 SPF)
Compression mode : Lossy
Stream size : 253 MiB (3%)
Title : iTunes
Language : Russian
Service kind : Complete Main
Default : Yes
Forced : Yes

Audio #2
ID : 3
Format : AC-3
Format/Info : Audio Coding 3
Commercial name : Dolby Digital
Codec ID : A_AC3
Duration : 1 h 32 min
Bit rate mode : Constant
Bit rate : 640 kb/s
Channel (s) : 6 channels
Channel layout : L R C LFE Ls Rs
Sampling rate : 48.0 kHz
Frame rate : 31.250 FPS (1536 SPF)
Compression mode : Lossy
Stream size : 422 MiB (6%)
Title : Original
Language : English
Service kind : Complete Main
Default : No
Forced : No

Menu
00:00:00.000 : Chapter 01
00:05:35.543 : Chapter 02
00:12:02.930 : Chapter 03
00:23:38.458 : Chapter 04
00:33:00.395 : Chapter 05
00:42:00.351 : Chapter 06
00:49:36.723 : Chapter 07
01:02:09.475 : Chapter 08
01:10:15.544 : Chapter 09
01:16:17.739 : Chapter 10
01:21:50.655 : Chapter 11
01:28:19.585 : Chapter 12

Другие фильмы
У данной публикации пока нет комментариев.
Будь первым, оставь своё мнение в комментариях!
Информация
Посетители, находящиеся в группе Гости, не могут оставлять комментарии к данной публикации.
Самый популярный релиз недели
WEB-DL 1080p 5.57 Gb ...

Кино копилка
...
Какую тему вы используете?

Реклама
Последние комментарии
...

Dimanchez

Сегодня, 10:12

...

lomoenot

Вчера, 16:43

...

ooofly

Вчера, 08:40

...

Laska020489

Вчера, 03:27

...

zombitto

29 сентября 2022 16:25