+4

Чёрная месса / El exorcismo de Carmen Farías (2021) WEB-DLRip-AVC от DoMiNo & селезень | iTunes

Информация о фильме
Название: Чёрная месса
Оригинальное название: El exorcismo de Carmen Farías
Год выхода: 2021
Жанр: Ужасы
Режиссер: Родриго Фьяллега
В ролях: Камила Соди, Хуан Пабло Кастанеда, Хуан Карлос Коломбо, Ана Сильвия Гарса, Люси Паэс

О фильме:
Кармен – молодая девушка, она выросла в маленьком городке, но смогла выучиться на журналиста и вскоре переехала в столицу, где построила успешную карьеру. Теперь она работает репортером в модном журнале, пишет статьи про знаменитостей и наслаждается комфортной жизнью. Но однажды она получает известие о смерти пожилой матери, оставившей ей в наследство старый родительский дом. Кармен вместе с супругом возвращается в родной городок и в полузаброшенный дом, где открывает фамильную тайну, которую её семья хранила поколениями.

Страна: Мексика
Студия: Invicta Films, STG Capital
Продолжительность: 01:32:06
Перевод: Профессиональный (многоголосый, закадровый) | Велес | iTunes

Файл
Формат: Matroska
Качество: WEB-DLRip-AVC (Видеоряд частично локализован!)
Видео: 1024x428 at 24.000 fps, [email protected], ~1888 kbps
Аудио: AC3, 6 ch, ~384 kbps - | Русский | Чёрная месса / El exorcismo de Carmen Farías (2021) WEB-DLRip-AVC от DoMiNo & селезень | iTunes
Субтитры: Отсутствуют

Чёрная месса / El exorcismo de Carmen Farías (2021) WEB-DLRip-AVC от DoMiNo & селезень | iTunes

Авторизуйтесь для получения доступа к скачиванию

Нет аккаунта? Регистрация открыта и займёт меньше минуты

Вход Регистрация

x264 [info]: frame I:824 Avg QP:12.59 size: 64059
x264 [info]: frame P:33736 Avg QP:14.53 size: 22554
x264 [info]: frame B:98081 Avg QP:16.12 size: 4988
x264 [info]: consecutive B-frames: 1,4% 3,7% 3,8% 74,4% 7,5% 6,8% 0,9% 0,6% 0,2% 0,1% 0,6%

General
Unique ID : 296323393185341448425567964946739147901 (0xDEEDCF42FB4A67E7CFEBE4E7F946B47D)
Complete name : D:El.Exorcismo.De.Carmen.Farias.2021.WEB-DLRip.x264.seleZen.mkv
Format : Matroska
Format version : Version 4
File size : 1.46 GiB
Duration : 1 h 32 min
Overall bit rate : 2 272 kb/s
Movie name : El.Exorcismo.De.Carmen.Farias.2021.WEB-DLRip.x264.seleZen
Encoded date : UTC 14.08.2022 14:55:01
Writing application : mkvmerge v70.0.0 ('Caught A Lite Sneeze') 64-bit
Writing library : libebml v1.4.2 + libmatroska v1.6.4
Cover : Yes
Attachments : cover.jpg / small_cover.jpg

Video
ID : 1
Format : AVC
Format/Info : Advanced Video Codec
Format profile : [email protected]
Format settings : CABAC / 12 Ref Frames
Format settings, CABAC : Yes
Format settings, Reference : 12 frames
Codec ID : V_MPEG4/ISO/AVC
Duration : 1 h 32 min
Bit rate : 1 888 kb/s
Width : 1 024 pixels
Height : 428 pixels
Display aspect ratio : 2.40:1
Frame rate mode : Constant
Frame rate : 24.000 FPS
Color space : YUV
Chroma subsampling : 4:2:0
Bit depth : 8 bits
Scan type : Progressive
Bits/(Pixel*Frame) : 0.179
Stream size : 1.21 GiB (83%)
Title : -=DoMiNo=-
Writing library : x264 core 164 by -=DoMiNo=-
Encoding settings : cabac=1 / ref=12 / deblock=1:-3:-3 / analyse=0×3:0×133 / me=umh / subme=10 / psy=1 / psy_rd=1.05:0.15 / mixed_ref=1 / me_range=32 / chroma_me=1 / trellis=2 / 8×8dct=1 / cqm=0 / deadzone=21,11 / fast_pskip=0 / chroma_qp_offset=-3 / threads=17 / lookahead_threads=3 / sliced_threads=0 / nr=0 / decimate=0 / interlaced=0 / bluray_compat=0 / constrained_intra=0 / bframes=10 / b_pyramid=2 / b_adapt=2 / b_bias=0 / direct=3 / weightb=1 / open_gop=0 / weightp=2 / keyint=250 / keyint_min=24 / scenecut=40 / intra_refresh=0 / rc_lookahead=60 / rc=2pass / mbtree=0 / bitrate=1888 / ratetol=1.0 / qcomp=0.60 / qpmin=0 / qpmax=69 / qpstep=4 / cplxblur=20.0 / qblur=0.5 / vbv_maxrate=50000 / vbv_bufsize=62500 / nal_hrd=none / filler=0 / ip_ratio=1.22 / pb_ratio=1.30 / aq=3:0.80
Language : English
Default : Yes
Forced : No

Audio
ID : 2
Format : AC-3
Format/Info : Audio Coding 3
Commercial name : Dolby Digital
Codec ID : A_AC3
Duration : 1 h 32 min
Bit rate mode : Constant
Bit rate : 384 kb/s
Channel (s) : 6 channels
Channel layout : L R C LFE Ls Rs
Sampling rate : 48.0 kHz
Frame rate : 31.250 FPS (1536 SPF)
Compression mode : Lossy
Stream size : 253 MiB (17%)
Title : MVO (iTunes)
Language : Russian
Service kind : Complete Main
Default : Yes
Forced : Yes

Menu
00:00:00.000 : en:Chapter 01
00:07:57.291 : en:Chapter 02
00:16:58.541 : en:Chapter 03
00:25:23.041 : en:Chapter 04
00:34:08.416 : en:Chapter 05
00:42:32.457 : en:Chapter 06
00:51:00.582 : en:Chapter 07
01:00:05.165 : en:Chapter 08
01:08:47.165 : en:Chapter 09
01:17:41.915 : en:Chapter 10
01:26:42.415 : en:Chapter 11

Другие фильмы
У данной публикации пока нет комментариев.
Будь первым, оставь своё мнение в комментариях!
Информация
Посетители, находящиеся в группе Гости, не могут оставлять комментарии к данной публикации.
Самый популярный релиз недели
WEB-DL 1080p 5.57 Gb ...

Кино копилка
...
Какую тему вы используете?

Реклама
Последние комментарии
...

Dimanchez

Сегодня, 10:12

...

lomoenot

Вчера, 16:43

...

ooofly

Вчера, 08:40

...

Laska020489

Вчера, 03:27

...

zombitto

29 сентября 2022 16:25