+5

Дум / Doom (2005) UHD BDRemux 2160p от селезень | 4K | HDR | D, P, P2, A | Unrated Extended Edition | Лицензия

Информация о фильме
Название: Дум
Оригинальное название: Doom
Год выхода: 2005
Жанр: Ужасы, фантастика, боевик, триллер, приключения
Режиссер: Анджей Бартковяк
В ролях: Доби Опарей, Карл Урбан, Дуэйн Джонсон, Розамунд Пайк, Разаак Адоти, Ричард Брэйк, Аль Уивер, Декстер Флетчер, Брайан Стил, Бен Дэниелс, Йао Чин, Роберт Расселл, Дэниэл Йорк, Йен Хьюз, Сара Хотон, Бланка Яросова, Владислав Динтера, Пётр Хнетковски, Ярослав Псеничка, Марек Мотличек, Даг Джонс, Рана Моррисон, Барбара Неделякова, Роберт Нельсон

О фильме: 2045 год. После того как из далёкой научной лаборатории Олдуай был получен сигнал о помощи, на Марс прибывает отряд космического спецназа и обнаруживает разгромленную станцию. Вскоре выясняется, что на людей здесь охотятся полчища ужасных мутантов.

Страна: США, Германия, Великобритания, Чехия
Студия: John Wells Productions, Di Bonaventura Pictures
Продолжительность: 01:52:44
Перевод(ы):
#1: Дублированный | Blu-ray CEE
#2: Профессиональный двухголосый | П. Гланц и И. Королёва
#3: Профессиональный многоголосый | Jaskier
#3: Профессиональный многоголосый | Киномания
#4: Профессиональный двухголосый | Tycoon
#5: Авторский | Ю. Немахов
#6: Авторский | А. Гаврилов
#7: Авторский | А. Матвеев


Качество: BDRemux 2160p
Видео: 3840x2160 at 23.976 fps, MPEG-H HEVC HDR ~ 54500 kbps avg
Аудио #01: 48 kHz, AC3, 5.1, 448 Kbps | Дублированный | Blu-ray CEE | RUS |Дум / Doom (2005) UHD BDRemux 2160p от селезень | 4K | HDR | D, P, P2, A | Unrated Extended Edition | Лицензия
Аудио #02: 48 kHz, DTS, 5.1, 768 Kbps | Дублированный | Blu-ray CEE | RUS |
Аудио #03: 48 kHz, DTS-HD MA, 5.1, 4226 Kbps | Профессиональный двухголосый | П. Гланц и И. Королёва | RUS |
Аудио #04: 48 kHz, DTS-HD MA, 5.1, 4232 Kbps | Профессиональный многоголосый | Jaskier | RUS |
Аудио #05: 48 kHz, AC3, 5.1, 384 Kbps | Профессиональный многоголосый | Киномания | RUS |
Аудио #06: 48 kHz, AC3, 5.1, 448 Kbps | Профессиональный двухголосый | Tycoon | RUS |
Аудио #07: 48 kHz, DTS-HD MA, 5.1, 4223 Kbps | Авторский | Ю. Немахов | RUS |
Аудио #08: 48 kHz, DTS-HD MA, 5.1, 4242 Kbps | Авторский | А. Гаврилов | RUS |
Аудио #09: 48 kHz, DTS-HD MA, 5.1, 4235 Kbps | Авторский | А. Матвеев | RUS |
Аудио #10: 48 kHz, AC3, 2.0, 192 Kbps | Профессиональный многоголосый | Так треба продакшн | UKR |
Аудио #11: 48 kHz, DTS-HD MA, 7.1, 6370 Kbps | Оригинал | ENG |
Субтитры: Русские (Forced, full), английские

Дум / Doom (2005) UHD BDRemux 2160p от селезень | 4K | HDR | D, P, P2, A | Unrated Extended Edition | Лицензия

Авторизуйтесь для получения доступа к скачиванию

Нет аккаунта? Регистрация открыта и займёт меньше минуты

Вход Регистрация

General
Unique ID : 107310799063984149768012178742648796944 (0x50BB4EE16F054721B9970BEAEC847710)
Complete name : F:\Video\Doom.2005.BDREMUX.2160p.HDR.seleZen.mkv
Format : Matroska
Format version : Version 4
File size : 66.3 GiB
Duration : 1 h 52 min
Overall bit rate mode : Variable
Overall bit rate : 84.2 Mb/s
Movie name : Doom 2005 from seleZen
Encoded date : UTC 2022-08-14 11:14:46
Writing application : mkvmerge v59.0.0 ('Shining Star') 64-bit
Writing library : libebml v1.4.2 + libmatroska v1.6.4

Video
ID : 1
Format : HEVC
Format/Info : High Efficiency Video Coding
Format profile : Main [email protected]@High
HDR format : SMPTE ST 2086, HDR10 compatible
Codec ID : V_MPEGH/ISO/HEVC
Duration : 1 h 52 min
Bit rate : 54.5 Mb/s
Width : 3 840 pixels
Height : 2 160 pixels
Display aspect ratio : 16:9
Frame rate mode : Constant
Frame rate : 23.976 (24000/1001) FPS
Color space : YUV
Chroma subsampling : 4:2:0 (Type 2)
Bit depth : 10 bits
Bits/(Pixel*Frame) : 0.274
Stream size : 42.9 GiB (65%)
Default : Yes
Forced : No
Color range : Limited
Color primaries : BT.2020
Transfer characteristics : PQ
Matrix coefficients : BT.2020 non-constant
Mastering display color pri : Display P3
Mastering display luminance : min: 0.0050 cd/m2, max: 1000 cd/m2
Maximum Content Light Level : 997 cd/m2
Maximum Frame-Average Light : 200 cd/m2

Audio #1
ID : 2
Format : AC-3
Format/Info : Audio Coding 3
Commercial name : Dolby Digital
Codec ID : A_AC3
Duration : 1 h 52 min
Bit rate mode : Constant
Bit rate : 448 kb/s
Channel(s) : 6 channels
Channel layout : L R C LFE Ls Rs
Sampling rate : 48.0 kHz
Frame rate : 31.250 FPS (1536 SPF)
Compression mode : Lossy
Stream size : 361 MiB (1%)
Title : Dub [Blu-ray CEE]
Language : Russian
Service kind : Complete Main
Default : Yes
Forced : Yes

Audio #2
ID : 3
Format : DTS
Format/Info : Digital Theater Systems
Codec ID : A_DTS
Duration : 1 h 52 min
Bit rate mode : Constant
Bit rate : 768 kb/s
Channel(s) : 6 channels
Channel layout : C L R Ls Rs LFE
Sampling rate : 48.0 kHz
Frame rate : 93.750 FPS (512 SPF)
Bit depth : 24 bits
Compression mode : Lossy
Stream size : 619 MiB (1%)
Title : Dub [Blu-ray CEE]
Language : Russian
Default : No
Forced : No

Audio #3
ID : 4
Format : DTS XLL
Format/Info : Digital Theater Systems
Commercial name : DTS-HD Master Audio
Codec ID : A_DTS
Duration : 1 h 52 min
Bit rate mode : Variable
Bit rate : 4 226 kb/s
Channel(s) : 6 channels
Channel layout : C L R Ls Rs LFE
Sampling rate : 48.0 kHz
Frame rate : 93.750 FPS (512 SPF)
Bit depth : 24 bits
Compression mode : Lossless
Stream size : 3.33 GiB (5%)
Title : DVO [П. Гланц и И. Королёва]
Language : Russian
Default : No
Forced : No

Audio #4
ID : 5
Format : DTS XLL
Format/Info : Digital Theater Systems
Commercial name : DTS-HD Master Audio
Codec ID : A_DTS
Duration : 1 h 52 min
Bit rate mode : Variable
Bit rate : 4 232 kb/s
Channel(s) : 6 channels
Channel layout : C L R Ls Rs LFE
Sampling rate : 48.0 kHz
Frame rate : 93.750 FPS (512 SPF)
Bit depth : 24 bits
Compression mode : Lossless
Stream size : 3.33 GiB (5%)
Title : MVO [Jaskier]
Language : Russian
Default : No
Forced : No

Audio #5
ID : 6
Format : AC-3
Format/Info : Audio Coding 3
Commercial name : Dolby Digital
Codec ID : A_AC3
Duration : 1 h 52 min
Bit rate mode : Constant
Bit rate : 384 kb/s
Channel(s) : 6 channels
Channel layout : L R C LFE Ls Rs
Sampling rate : 48.0 kHz
Frame rate : 31.250 FPS (1536 SPF)
Compression mode : Lossy
Stream size : 310 MiB (0%)
Title : MVO [Киномания]
Language : Russian
Service kind : Complete Main
Default : No
Forced : No

Audio #6
ID : 7
Format : AC-3
Format/Info : Audio Coding 3
Commercial name : Dolby Digital
Codec ID : A_AC3
Duration : 1 h 52 min
Bit rate mode : Constant
Bit rate : 448 kb/s
Channel(s) : 6 channels
Channel layout : L R C LFE Ls Rs
Sampling rate : 48.0 kHz
Frame rate : 31.250 FPS (1536 SPF)
Compression mode : Lossy
Stream size : 361 MiB (1%)
Title : DVO [Tycoon]
Language : Russian
Service kind : Complete Main
Default : No
Forced : No

Audio #7
ID : 8
Format : DTS XLL
Format/Info : Digital Theater Systems
Commercial name : DTS-HD Master Audio
Codec ID : A_DTS
Duration : 1 h 52 min
Bit rate mode : Variable
Bit rate : 4 223 kb/s
Channel(s) : 6 channels
Channel layout : C L R Ls Rs LFE
Sampling rate : 48.0 kHz
Frame rate : 93.750 FPS (512 SPF)
Bit depth : 24 bits
Compression mode : Lossless
Stream size : 3.32 GiB (5%)
Title : AVO [Ю. Немахов]
Language : Russian
Default : No
Forced : No

Audio #8
ID : 9
Format : DTS XLL
Format/Info : Digital Theater Systems
Commercial name : DTS-HD Master Audio
Codec ID : A_DTS
Duration : 1 h 52 min
Bit rate mode : Variable
Bit rate : 4 242 kb/s
Channel(s) : 6 channels
Channel layout : C L R Ls Rs LFE
Sampling rate : 48.0 kHz
Frame rate : 93.750 FPS (512 SPF)
Bit depth : 24 bits
Compression mode : Lossless
Stream size : 3.34 GiB (5%)
Title : AVVO [А. Гаврилов]
Language : Russian
Default : No
Forced : No

Audio #9
ID : 10
Format : DTS XLL
Format/Info : Digital Theater Systems
Commercial name : DTS-HD Master Audio
Codec ID : A_DTS
Duration : 1 h 52 min
Bit rate mode : Variable
Bit rate : 4 235 kb/s
Channel(s) : 6 channels
Channel layout : C L R Ls Rs LFE
Sampling rate : 48.0 kHz
Frame rate : 93.750 FPS (512 SPF)
Bit depth : 24 bits
Compression mode : Lossless
Stream size : 3.33 GiB (5%)
Title : AVO [А. Матвеев]
Language : Russian
Default : No
Forced : No

Audio #10
ID : 11
Format : AC-3
Format/Info : Audio Coding 3
Commercial name : Dolby Digital
Codec ID : A_AC3
Duration : 1 h 52 min
Bit rate mode : Constant
Bit rate : 192 kb/s
Channel(s) : 2 channels
Channel layout : L R
Sampling rate : 48.0 kHz
Frame rate : 31.250 FPS (1536 SPF)
Compression mode : Lossy
Stream size : 155 MiB (0%)
Title : MVO [Так треба продакшн]
Language : Ukrainian
Service kind : Complete Main
Default : No
Forced : No

Audio #11
ID : 12
Format : DTS XLL X
Format/Info : Digital Theater Systems
Commercial name : DTS-HD Master Audio
Codec ID : A_DTS
Duration : 1 h 52 min
Bit rate mode : Variable
Bit rate : 6 370 kb/s
Channel(s) : 8 channels
Channel(s)_Original : Object Based
ChannelLayout_Original : Object Based
Sampling rate : 48.0 kHz
Frame rate : 93.750 FPS (512 SPF)
Bit depth : 24 bits
Stream size : 5.02 GiB (8%)
Title : Original
Language : English
Default : No
Forced : No

Text #1
ID : 13
Format : UTF-8
Codec ID : S_TEXT/UTF8
Codec ID/Info : UTF-8 Plain Text
Duration : 1 s 1 ms
Bit rate : 487 b/s
Frame rate : 0.999 (999/1000) FPS
Count of elements : 1
Stream size : 61.0 Bytes (0%)
Title : Forced
Language : Russian
Default : Yes
Forced : Yes

Text #2
ID : 14
Format : UTF-8
Codec ID : S_TEXT/UTF8
Codec ID/Info : UTF-8 Plain Text
Duration : 1 h 44 min
Bit rate : 71 b/s
Frame rate : 0.171 FPS
Count of elements : 1066
Stream size : 54.6 KiB (0%)
Title : Full
Language : Russian
Default : No
Forced : No

Text #3
ID : 15
Format : UTF-8
Codec ID : S_TEXT/UTF8
Codec ID/Info : UTF-8 Plain Text
Duration : 1 h 46 min
Bit rate : 41 b/s
Frame rate : 0.169 FPS
Count of elements : 1075
Stream size : 32.6 KiB (0%)
Language : English
Default : No
Forced : No

Menu
00:00:00.000 : Глава 01
00:02:56.468 : Глава 02
00:10:58.324 : Глава 03
00:16:13.598 : Глава 04
00:21:22.364 : Глава 05
00:25:32.364 : Глава 06
00:33:44.773 : Глава 07
00:38:19.506 : Глава 08
00:44:11.065 : Глава 09
00:50:56.553 : Глава 10
00:55:31.828 : Глава 11
01:00:13.193 : Глава 12
01:08:22.181 : Глава 13
01:13:57.933 : Глава 14
01:17:57.756 : Глава 15
01:21:44.775 : Глава 16
01:27:40.964 : Глава 17
01:35:07.327 : Глава 18
01:39:28.379 : Глава 19
01:43:51.684 : Глава 20

Другие фильмы
У данной публикации пока нет комментариев.
Будь первым, оставь своё мнение в комментариях!
Информация
Посетители, находящиеся в группе Гости, не могут оставлять комментарии к данной публикации.
Самый популярный релиз недели
WEB-DL 1080p 5.57 Gb ...

Кино копилка
...
Какую тему вы используете?

Реклама
Последние комментарии
...

Dimanchez

Сегодня, 10:12

...

lomoenot

Вчера, 16:43

...

ooofly

Вчера, 08:40

...

Laska020489

Вчера, 03:27

...

zombitto

29 сентября 2022 16:25