+9

Базз Лайтер / Lightyear (2022) BDRip 1080p от селезень | D, P

Информация о фильме
Название: Базз Лайтер
Оригинальное название: Lightyear
Год выхода: 2022
Жанр: мультфильм, фантастика, боевик, драма, приключения, семейный
Режиссер: Энгус МакЛэйн
В ролях: Крис Эванс, Кеке Палмер, Питер Сон, Тайка Вайтити, Дэйл Соулс, Джеймс Бролин, Узо Адуба, Мэри МаДональд-Льюис, Исайя Уитлок мл., Энгус МакЛэйн

О фильме: История приключений легендарного космического рейнджера Базза Лайтера.

Страна: США
Студия: Pixar, Pixar Animation Studios, Walt Disney Pictures
Продолжительность: 01:45:04
Перевод(ы):
#1: Дублированный (профессиональный) | Cinema Tone Production, Казахстан
#2: Дублированный (любительский) | Red Head Sound
#3: Профессиональный многоголосый | Jaskier
#4: Профессиональный многоголосый | TVShows


Качество: BDRip 1080p
Видео: MPEG-4 AVC, 1920x804, 11.4 Mbit/s, 23.976 fps
Аудио #01: 48 kHz, AC3, 2.0, 192 Kbps | Дублированный | Cinema Tone Production, Казахстан | RUS |Базз Лайтер / Lightyear (2022) BDRip 1080p от селезень | D, P
Аудио #02: 48 kHz, AC3, 5.1, 640 Kbps | Дублированный | Red Head Sound | RUS |
Аудио #03: 48 kHz, AC3, 5.1, 384 Kbps | Профессиональный многоголосый | Jaskier | RUS |
Аудио #04: 48 kHz, AC3, 2.1, 192 Kbps | Профессиональный многоголосый | TVShows | RUS |
Аудио #05: 48 kHz, AC3, 5.1, 640 Kbps | Оригинал | ENG |
Субтитры: Русские (Forced, 2 x full), английские

Базз Лайтер / Lightyear (2022) BDRip 1080p от селезень | D, P

Авторизуйтесь для получения доступа к скачиванию

Нет аккаунта? Регистрация открыта и займёт меньше минуты

Вход Регистрация

General
Unique ID : 149086500905354023670485030192268089001 (0x70290400F786419EA25D8274BD9296A9)
Complete name : F:\Video\Lightyear.2022.BDRip.1080p.seleZen.mkv
Format : Matroska
Format version : Version 4
File size : 9.88 GiB
Duration : 1 h 45 min
Overall bit rate : 13.5 Mb/s
Movie name : Lightyear 2022 from seleZen
Encoded date : UTC 2022-08-23 01:52:05
Writing application : mkvmerge v59.0.0 ('Shining Star') 64-bit
Writing library : libebml v1.4.2 + libmatroska v1.6.4

Video
ID : 1
Format : AVC
Format/Info : Advanced Video Codec
Format profile : [email protected]
Format settings : CABAC / 5 Ref Frames
Format settings, CABAC : Yes
Format settings, Reference : 5 frames
Codec ID : V_MPEG4/ISO/AVC
Duration : 1 h 45 min
Bit rate : 11.4 Mb/s
Width : 1 920 pixels
Height : 804 pixels
Display aspect ratio : 2.40:1
Frame rate mode : Constant
Frame rate : 23.976 (24000/1001) FPS
Color space : YUV
Chroma subsampling : 4:2:0
Bit depth : 8 bits
Scan type : Progressive
Bits/(Pixel*Frame) : 0.308
Stream size : 8.37 GiB (85%)
Writing library : x264 core 164 r3085+55M seleZen t_mod_New [(8 & 10)[email protected] X86_64]
Encoding settings : cabac=1 / ref=5 / deblock=1:-2:-2 / analyse=0x3:0x133 / me=umh / subme=11 / psy=1 / fade_compensate=0.00 / psy_rd=1.03:0.06 / mixed_ref=1 / me_range=32 / chroma_me=1 / trellis=2 / 8x8dct=1 / cqm=0 / deadzone=21,11 / fast_pskip=0 / chroma_qp_offset=-3 / threads=25 / lookahead_threads=4 / sliced_threads=0 / nr=0 / decimate=0 / interlaced=0 / bluray_compat=0 / constrained_intra=0 / fgo=0 / bframes=9 / b_pyramid=2 / b_adapt=2 / b_bias=0 / direct=1 / weightb=1 / open_gop=0 / weightp=2 / keyint=240 / keyint_min=23 / scenecut=40 / intra_refresh=0 / rc_lookahead=60 / rc=crf / mbtree=0 / crf=16.8000 / qcomp=0.60 / qpmin=0:0:0 / qpmax=51:51:51 / qpstep=4 / vbv_maxrate=50000 / vbv_bufsize=62500 / crf_max=0.0 / nal_hrd=none / filler=0 / ip_ratio=1.40 / pb_ratio=1.30 / aq=3:0.80 / aq-sensitivity=10.00 / aq-factor=1.00:1.00:1.00 / aq2=0 / aq3=0
Language : English
Default : Yes
Forced : No

Audio #1
ID : 2
Format : AC-3
Format/Info : Audio Coding 3
Commercial name : Dolby Digital
Codec ID : A_AC3
Duration : 1 h 45 min
Bit rate mode : Constant
Bit rate : 192 kb/s
Channel(s) : 2 channels
Channel layout : L R
Sampling rate : 48.0 kHz
Frame rate : 31.250 FPS (1536 SPF)
Compression mode : Lossy
Stream size : 144 MiB (1%)
Title : Dub [Cinema Tone Production]
Language : Russian
Service kind : Complete Main
Default : Yes
Forced : Yes

Audio #2
ID : 3
Format : AC-3
Format/Info : Audio Coding 3
Commercial name : Dolby Digital
Codec ID : A_AC3
Duration : 1 h 45 min
Bit rate mode : Constant
Bit rate : 640 kb/s
Channel(s) : 6 channels
Channel layout : L R C LFE Ls Rs
Sampling rate : 48.0 kHz
Frame rate : 31.250 FPS (1536 SPF)
Compression mode : Lossy
Stream size : 481 MiB (5%)
Title : Dub [Red Head Sound]
Language : Russian
Service kind : Complete Main
Default : No
Forced : No

Audio #3
ID : 4
Format : AC-3
Format/Info : Audio Coding 3
Commercial name : Dolby Digital
Codec ID : A_AC3
Duration : 1 h 45 min
Bit rate mode : Constant
Bit rate : 384 kb/s
Channel(s) : 6 channels
Channel layout : L R C LFE Ls Rs
Sampling rate : 48.0 kHz
Frame rate : 31.250 FPS (1536 SPF)
Compression mode : Lossy
Stream size : 289 MiB (3%)
Title : MVO [Jaskier]
Language : Russian
Service kind : Complete Main
Default : No
Forced : No

Audio #4
ID : 5
Format : AC-3
Format/Info : Audio Coding 3
Commercial name : Dolby Digital
Codec ID : A_AC3
Duration : 1 h 45 min
Bit rate mode : Constant
Bit rate : 192 kb/s
Channel(s) : 2 channels
Channel layout : L R
Sampling rate : 48.0 kHz
Frame rate : 31.250 FPS (1536 SPF)
Compression mode : Lossy
Stream size : 144 MiB (1%)
Title : MVO [TVShows]
Language : Russian
Service kind : Complete Main
Default : No
Forced : No

Audio #5
ID : 6
Format : AC-3
Format/Info : Audio Coding 3
Commercial name : Dolby Digital
Codec ID : A_AC3
Duration : 1 h 45 min
Bit rate mode : Constant
Bit rate : 640 kb/s
Channel(s) : 6 channels
Channel layout : L R C LFE Ls Rs
Sampling rate : 48.0 kHz
Frame rate : 31.250 FPS (1536 SPF)
Compression mode : Lossy
Stream size : 481 MiB (5%)
Title : Original
Language : English
Service kind : Complete Main
Default : No
Forced : No

Text #1
ID : 7
Format : UTF-8
Codec ID : S_TEXT/UTF8
Codec ID/Info : UTF-8 Plain Text
Duration : 1 h 33 min
Bit rate : 0 b/s
Frame rate : 0.002 FPS
Count of elements : 9
Stream size : 592 Bytes (0%)
Title : Forced
Language : Russian
Default : No
Forced : No

Text #2
ID : 8
Format : UTF-8
Codec ID : S_TEXT/UTF8
Codec ID/Info : UTF-8 Plain Text
Duration : 1 h 42 min
Bit rate : 90 b/s
Frame rate : 0.252 FPS
Count of elements : 1546
Stream size : 68.0 KiB (0%)
Title : Full [Official]
Language : Russian
Default : No
Forced : No

Text #3
ID : 9
Format : UTF-8
Codec ID : S_TEXT/UTF8
Codec ID/Info : UTF-8 Plain Text
Duration : 1 h 43 min
Bit rate : 105 b/s
Frame rate : 0.171 FPS
Count of elements : 1057
Stream size : 79.8 KiB (0%)
Title : Full v.2
Language : Russian
Default : No
Forced : No

Text #4
ID : 10
Format : UTF-8
Codec ID : S_TEXT/UTF8
Codec ID/Info : UTF-8 Plain Text
Duration : 1 h 42 min
Bit rate : 63 b/s
Frame rate : 0.272 FPS
Count of elements : 1667
Stream size : 47.5 KiB (0%)
Title : Full
Language : English
Default : No
Forced : No

Text #5
ID : 11
Format : UTF-8
Codec ID : S_TEXT/UTF8
Codec ID/Info : UTF-8 Plain Text
Duration : 1 h 44 min
Bit rate : 76 b/s
Frame rate : 0.330 FPS
Count of elements : 2076
Stream size : 58.3 KiB (0%)
Title : SDH
Language : English
Default : No
Forced : No

Menu
00:00:00.000 : Глава 01
00:04:43.742 : Глава 02
00:06:48.324 : Глава 03
00:08:13.118 : Глава 04
00:09:33.740 : Глава 05
00:11:58.384 : Глава 06
00:15:27.176 : Глава 07
00:18:05.042 : Глава 08
00:20:40.698 : Глава 09
00:22:34.394 : Глава 10
00:24:37.017 : Глава 11
00:25:41.873 : Глава 12
00:27:01.244 : Глава 13
00:30:53.268 : Глава 14
00:32:02.837 : Глава 15
00:33:32.927 : Глава 16
00:34:23.311 : Глава 17
00:36:56.798 : Глава 18
00:39:14.185 : Глава 19
00:41:55.596 : Глава 20
00:45:29.226 : Глава 21
00:50:28.942 : Глава 22
00:51:37.928 : Глава 23
00:54:23.093 : Глава 24
00:57:55.346 : Глава 25
01:02:11.436 : Глава 26
01:04:26.320 : Глава 27
01:07:35.843 : Глава 28
01:09:15.693 : Глава 29
01:10:32.770 : Глава 30
01:11:25.572 : Глава 31
01:15:37.824 : Глава 32
01:16:45.392 : Глава 33
01:17:44.076 : Глава 34
01:25:18.988 : Глава 35
01:27:10.683 : Глава 36
01:29:00.960 : Глава 37
01:30:42.186 : Глава 38
01:33:45.619 : Глава 39
01:36:02.381 : Глава 40
01:43:35.500 : Глава 41

Другие фильмы
Комментарии:

...
LDN 17 августа 2022 08:35
+1

ну как можно в детский мультик засунуть ЛГБТ?!!!!!

Информация
Посетители, находящиеся в группе Гости, не могут оставлять комментарии к данной публикации.
Самый популярный релиз недели
WEB-DL 1080p 5.57 Gb ...

Кино копилка
...
Какую тему вы используете?

Реклама
Последние комментарии
...

Dimanchez

Сегодня, 10:12

...

lomoenot

Вчера, 16:43

...

ooofly

Вчера, 08:40

...

Laska020489

Вчера, 03:27

...

zombitto

29 сентября 2022 16:25