+4

Доктор Стрэндж: В мультивселенной безумия / Doctor Strange in the Multiverse of Madness (2022) BDRip-AVC от DoMiNo & селезень | D

Информация о фильме
Название: Доктор Стрэндж: В мультивселенной безумия
Оригинальное название: Doctor Strange in the Multiverse of Madness
Год выхода: 2022
Жанр: Фантастика, фэнтези, боевик, приключения, ужасы, комикс, супергерой
Режиссер: Сэм Рэйми
В ролях: Бенедикт Камбербэтч, Элизабет Олсен, Чиветел Эджиофор, Бенедикт Вонг, Сочил Гомес, Майкл Стулбарг, Рэйчел МакАдамс, Патрик Стюарт, Брюс Кэмпбелл, Джулиан Хиллиард

О фильме:
Доктор Стрэндж при помощи Вонга спасает от гигантского осьминога девушку-подростка по имени Америка Чавес, которая при сильном испуге может открывать порталы в параллельные вселенные. Пытаясь уберечь новую знакомую от злой силы, жаждущей заполучить её способность, Доктор вместе с Америкой пускается в путешествие по мультивселенной.

Страна: США
Студия: Marvel Studios
Продолжительность: 02:06:32
Перевод: Дублированный | Невафильм
Субтитры: Русские (2 x Forced, Full), английские (Forced, Full, SDH)

Файл
Формат: Matroska
Качество: BDRip-AVC
Видео: 1024×428 at 23.976 fps, [email protected], ~2205 kbps
Аудио 1: AC3, 6 ch, ~448 kbps — | Русский | Доктор Стрэндж: В мультивселенной безумия / Doctor Strange in the Multiverse of Madness (2022) BDRip-AVC от DoMiNo & селезень | D
Аудио 2: AC3, 6 ch, ~448 kbps — | Английский |

Доктор Стрэндж: В мультивселенной безумия / Doctor Strange in the Multiverse of Madness (2022) BDRip-AVC от DoMiNo & селезень | D

Авторизуйтесь для получения доступа к скачиванию

Нет аккаунта? Регистрация открыта и займёт меньше минуты

Вход Регистрация

x264 [info]: frame I:1760 Avg QP:16.06 size: 61476
x264 [info]: frame P:45391 Avg QP:18.38 size: 21759
x264 [info]: frame B:134856 Avg QP:20.98 size: 7392

General
Unique ID : 6277114736817629345869785732588996141 (0×4B8EDA69D8A71991BEC28C8DB8F862D)
Complete name : Doctor.Strange.in.the.Multiverse.of.Madness.2022.BDRip.x264.seleZen.mkv
Format : Matroska
Format version : Version 4
File size : 2.74 GiB
Duration : 2 h 6 min
Overall bit rate : 3 104 kb/s
Movie name : Doctor.Strange.in.the.Multiverse.of.Madness.2022.BDRip.x264.seleZen
Encoded date : UTC 13.08.2022 07:14:20
Writing application : mkvmerge v63.0.0 ('Everything') 64-bit
Writing library : libebml v1.4.2 + libmatroska v1.6.4
Cover : Yes
Attachments : cover.jpg / small_cover.jpg

Video
ID : 1
Format : AVC
Format/Info : Advanced Video Codec
Format profile : [email protected]
Format settings : CABAC / 12 Ref Frames
Format settings, CABAC : Yes
Format settings, Reference : 12 frames
Codec ID : V_MPEG4/ISO/AVC
Duration : 2 h 6 min
Bit rate : 2 205 kb/s
Width : 1 024 pixels
Height : 428 pixels
Display aspect ratio : 2.40:1
Frame rate mode : Constant
Frame rate : 23.976 (24000/1001) FPS
Color space : YUV
Chroma subsampling : 4:2:0
Bit depth : 8 bits
Scan type : Progressive
Bits/(Pixel*Frame) : 0.210
Stream size : 1.95 GiB (71%)
Title : -=DoMiNo=-
Writing library : x264 core 164 by -=DoMiNo=-
Encoding settings : cabac=1 / ref=12 / deblock=1:-2:-2 / analyse=0×3:0×133 / me=umh / subme=11 / psy=1 / psy_rd=1.05:0.05 / mixed_ref=1 / me_range=32 / chroma_me=1 / trellis=2 / 8×8dct=1 / cqm=0 / deadzone=21,11 / fast_pskip=0 / chroma_qp_offset=-3 / threads=17 / lookahead_threads=3 / sliced_threads=0 / nr=0 / decimate=1 / interlaced=0 / bluray_compat=0 / constrained_intra=0 / bframes=10 / b_pyramid=2 / b_adapt=2 / b_bias=0 / direct=1 / weightb=1 / open_gop=0 / weightp=2 / keyint=250 / keyint_min=23 / scenecut=40 / intra_refresh=0 / rc_lookahead=60 / rc=crf / mbtree=0 / crf=18.0 / qcomp=0.65 / qpmin=0 / qpmax=69 / qpstep=4 / vbv_maxrate=50000 / vbv_bufsize=62500 / crf_max=0.0 / nal_hrd=none / filler=0 / ip_ratio=1.35 / pb_ratio=1.25 / aq=3:0.80
Language : English
Default : Yes
Forced : No
Color range : Limited
Color primaries : BT.709
Transfer characteristics : BT.709
Matrix coefficients : BT.709

Audio #1
ID : 2
Format : AC-3
Format/Info : Audio Coding 3
Commercial name : Dolby Digital
Codec ID : A_AC3
Duration : 2 h 6 min
Bit rate mode : Constant
Bit rate : 448 kb/s
Channel (s) : 6 channels
Channel layout : L R C LFE Ls Rs
Sampling rate : 48.0 kHz
Frame rate : 31.250 FPS (1536 SPF)
Compression mode : Lossy
Stream size : 405 MiB (14%)
Title : DUB
Language : Russian
Service kind : Complete Main
Default : Yes
Forced : Yes

Audio #2
ID : 3
Format : AC-3
Format/Info : Audio Coding 3
Commercial name : Dolby Digital
Codec ID : A_AC3
Duration : 2 h 6 min
Bit rate mode : Constant
Bit rate : 448 kb/s
Channel (s) : 6 channels
Channel layout : L R C LFE Ls Rs
Sampling rate : 48.0 kHz
Frame rate : 31.250 FPS (1536 SPF)
Compression mode : Lossy
Stream size : 405 MiB (14%)
Title : Original
Language : English
Service kind : Complete Main
Default : No
Forced : No

Text #1
ID : 4
Format : UTF-8
Codec ID : S_TEXT/UTF8
Codec ID/Info : UTF-8 Plain Text
Duration : 2 h 4 min
Bit rate : 1 b/s
Count of elements : 17
Stream size : 1.01 KiB (0%)
Title : Forced 1 (HDRezka Studio)
Language : Russian
Default : Yes
Forced : No

Text #2
ID : 5
Format : UTF-8
Codec ID : S_TEXT/UTF8
Codec ID/Info : UTF-8 Plain Text
Duration : 25 min 8 s
Bit rate : 2 b/s
Count of elements : 10
Stream size : 480 Bytes (0%)
Title : Forced 2
Language : Russian
Default : No
Forced : No

Text #3
ID : 6
Format : UTF-8
Codec ID : S_TEXT/UTF8
Codec ID/Info : UTF-8 Plain Text
Duration : 2 h 5 min
Bit rate : 68 b/s
Count of elements : 1253
Stream size : 62.4 KiB (0%)
Title : Full
Language : Russian
Default : No
Forced : No

Text #4
ID : 7
Format : UTF-8
Codec ID : S_TEXT/UTF8
Codec ID/Info : UTF-8 Plain Text
Duration : 25 min 8 s
Bit rate : 1 b/s
Count of elements : 10
Stream size : 265 Bytes (0%)
Title : Forced
Language : English
Default : No
Forced : No

Text #5
ID : 8
Format : UTF-8
Codec ID : S_TEXT/UTF8
Codec ID/Info : UTF-8 Plain Text
Duration : 55 min 41 s
Bit rate : 60 b/s
Count of elements : 992
Stream size : 24.9 KiB (0%)
Title : Full
Language : English
Default : No
Forced : No

Text #6
ID : 9
Format : UTF-8
Codec ID : S_TEXT/UTF8
Codec ID/Info : UTF-8 Plain Text
Duration : 2 h 5 min
Bit rate : 36 b/s
Count of elements : 1249
Stream size : 33.8 KiB (0%)
Title : SDH
Language : English
Default : No
Forced : No

Menu
00:00:00.000 : en:1
00:03:51.000 : en:2
00:08:26.000 : en:3
00:14:18.000 : en:4
00:18:21.000 : en:5
00:24:36.000 : en:6
00:37:55.000 : en:7
00:47:12.000 : en:8
00:50:00.000 : en:9
00:55:47.000 : en:10
00:59:42.000 : en:11
01:02:15.000 : en:12
01:05:14.000 : en:13
01:07:16.000 : en:14
01:14:59.000 : en:15
01:16:57.000 : en:16
01:19:13.000 : en:17
01:23:24.000 : en:18
01:26:29.000 : en:19
01:28:45.000 : en:20
01:34:41.000 : en:21
01:37:32.000 : en:22
01:41:21.000 : en:23
01:50:56.000 : en:24
01:53:19.000 : en:25
01:55:31.000 : en:26
01:56:25.000 : en:27
01:58:41.000 : en:28
01:59:18.000 : en:29

Другие фильмы
У данной публикации пока нет комментариев.
Будь первым, оставь своё мнение в комментариях!
Информация
Посетители, находящиеся в группе Гости, не могут оставлять комментарии к данной публикации.
Самый популярный релиз недели
WEB-DL 1080p 5.57 Gb ...

Кино копилка
...
Какую тему вы используете?

Реклама
Последние комментарии
...

Dimanchez

Сегодня, 10:12

...

lomoenot

Вчера, 16:43

...

ooofly

Вчера, 08:40

...

Laska020489

Вчера, 03:27

...

zombitto

29 сентября 2022 16:25