+4

Доктор Стрэндж: В мультивселенной безумия / Doctor Strange in the Multiverse of Madness (2022) WEB-DLRip-AVC от DoMiNo & селезень | D | IMAX

Информация о фильме
Название: Доктор Стрэндж: В мультивселенной безумия
Оригинальное название: Doctor Strange in the Multiverse of Madness
Год выхода: 2022
Жанр: Фантастика, фэнтези, боевик, приключения, ужасы, комикс, супергерой
Режиссер: Сэм Рэйми
В ролях: Бенедикт Камбербэтч, Элизабет Олсен, Чиветел Эджиофор, Бенедикт Вонг, Сочил Гомес, Майкл Стулбарг, Рэйчел МакАдамс, Патрик Стюарт, Брюс Кэмпбелл, Джулиан Хиллиард

О фильме:
Продолжение истории величайшего мага Земли доктора Стивена Стрэнджа. С помощью старых и новых мистических союзников Стрэндж отправляется в мультивселенную, чтобы сразиться с новым таинственным противником.

Страна: США
Студия: Marvel Studios
Продолжительность: 02:06:31
Перевод: Дублированный | Невафильм
Субтитры: Русские (2 x Forced, Full), английские (Forced, Full, SDH)

Файл
Формат: Matroska
Качество: WEB-DLRip-AVC | IMAX Edition
Видео: 1024×540 at 23.976 fps, [email protected], ~2685 kbps
Аудио 1: AC3, 6 ch, ~448 kbps — | Русский | Доктор Стрэндж: В мультивселенной безумия / Doctor Strange in the Multiverse of Madness (2022) WEB-DLRip-AVC от DoMiNo & селезень | D | IMAX
Аудио 2: AC3, 6 ch, ~384 kbps — | Английский |
Формат субтитров: softsub (SRT)

Доктор Стрэндж: В мультивселенной безумия / Doctor Strange in the Multiverse of Madness (2022) WEB-DLRip-AVC от DoMiNo & селезень | D | IMAX

Авторизуйтесь для получения доступа к скачиванию

Нет аккаунта? Регистрация открыта и займёт меньше минуты

Вход Регистрация

x264 [info]: frame I:1849 Avg QP:16.46 size: 78988
x264 [info]: frame P:45495 Avg QP:18.34 size: 26737
x264 [info]: frame B:134663 Avg QP:20.70 size: 8804

General
Unique ID : 24015497995664045112402652173305623187 (0×12113777CFA364A8BF8D14559BCBB293)
Complete name : D:Doctor.Strange.in.the.Multiverse.of.Madness.2022.IMAX.WEB-DLRip.x264.seleZen.mkv
Format : Matroska
Format version : Version 4
File size : 3.11 GiB
Duration : 2 h 6 min
Overall bit rate : 3 520 kb/s
Movie name : Doctor.Strange.in.the.Multiverse.of.Madness.2022.IMAX.WEB-DLRip.x264.seleZen
Encoded date : UTC 13.08.2022 07:23:46
Writing application : mkvmerge v63.0.0 ('Everything') 64-bit
Writing library : libebml v1.4.2 + libmatroska v1.6.4
Cover : Yes
Attachments : cover.jpg / small_cover.jpg

Video
ID : 1
Format : AVC
Format/Info : Advanced Video Codec
Format profile : [email protected]
Format settings : CABAC / 12 Ref Frames
Format settings, CABAC : Yes
Format settings, Reference : 12 frames
Codec ID : V_MPEG4/ISO/AVC
Duration : 2 h 6 min
Bit rate : 2 685 kb/s
Width : 1 024 pixels
Height : 540 pixels
Display aspect ratio : 1.896
Frame rate mode : Constant
Frame rate : 23.976 (24000/1001) FPS
Color space : YUV
Chroma subsampling : 4:2:0
Bit depth : 8 bits
Scan type : Progressive
Bits/(Pixel*Frame) : 0.203
Stream size : 2.37 GiB (76%)
Title : -=DoMiNo=-
Writing library : x264 core 164 r3095 baee400
Encoding settings : cabac=1 / ref=12 / deblock=1:-2:-2 / analyse=0×3:0×133 / me=umh / subme=10 / psy=1 / psy_rd=1.05:0.15 / mixed_ref=1 / me_range=32 / chroma_me=1 / trellis=2 / 8×8dct=1 / cqm=0 / deadzone=21,11 / fast_pskip=0 / chroma_qp_offset=-3 / threads=17 / lookahead_threads=2 / sliced_threads=0 / nr=0 / decimate=1 / interlaced=0 / bluray_compat=0 / constrained_intra=0 / bframes=9 / b_pyramid=2 / b_adapt=2 / b_bias=0 / direct=1 / weightb=1 / open_gop=0 / weightp=2 / keyint=250 / keyint_min=23 / scenecut=40 / intra_refresh=0 / rc_lookahead=60 / rc=crf / mbtree=0 / crf=18.5 / qcomp=0.70 / qpmin=0 / qpmax=69 / qpstep=4 / vbv_maxrate=50000 / vbv_bufsize=62500 / crf_max=0.0 / nal_hrd=none / filler=0 / ip_ratio=1.35 / pb_ratio=1.25 / aq=3:0.80
Language : English
Default : Yes
Forced : No
Color range : Limited
Color primaries : BT.709
Transfer characteristics : BT.709
Matrix coefficients : BT.709

Audio #1
ID : 2
Format : AC-3
Format/Info : Audio Coding 3
Commercial name : Dolby Digital
Codec ID : A_AC3
Duration : 2 h 6 min
Bit rate mode : Constant
Bit rate : 448 kb/s
Channel (s) : 6 channels
Channel layout : L R C LFE Ls Rs
Sampling rate : 48.0 kHz
Frame rate : 31.250 FPS (1536 SPF)
Compression mode : Lossy
Stream size : 405 MiB (13%)
Title : DUB
Language : Russian
Service kind : Complete Main
Default : Yes
Forced : Yes

Audio #2
ID : 3
Format : AC-3
Format/Info : Audio Coding 3
Commercial name : Dolby Digital
Codec ID : A_AC3
Duration : 2 h 6 min
Bit rate mode : Constant
Bit rate : 384 kb/s
Channel (s) : 6 channels
Channel layout : L R C LFE Ls Rs
Sampling rate : 48.0 kHz
Frame rate : 31.250 FPS (1536 SPF)
Compression mode : Lossy
Stream size : 347 MiB (11%)
Title : Original
Language : English
Service kind : Complete Main
Default : No
Forced : No

Text #1
ID : 4
Format : UTF-8
Codec ID : S_TEXT/UTF8
Codec ID/Info : UTF-8 Plain Text
Duration : 2 h 4 min
Bit rate : 1 b/s
Count of elements : 17
Stream size : 1.01 KiB (0%)
Title : Forced [HDRezka Studio]
Language : Russian
Default : Yes
Forced : No

Text #2
ID : 5
Format : UTF-8
Codec ID : S_TEXT/UTF8
Codec ID/Info : UTF-8 Plain Text
Duration : 25 min 8 s
Bit rate : 2 b/s
Count of elements : 10
Stream size : 480 Bytes (0%)
Title : Forced v.2
Language : Russian
Default : No
Forced : No

Text #3
ID : 6
Format : UTF-8
Codec ID : S_TEXT/UTF8
Codec ID/Info : UTF-8 Plain Text
Duration : 2 h 5 min
Bit rate : 68 b/s
Count of elements : 1253
Stream size : 62.4 KiB (0%)
Title : Full
Language : Russian
Default : No
Forced : No

Text #4
ID : 7
Format : UTF-8
Codec ID : S_TEXT/UTF8
Codec ID/Info : UTF-8 Plain Text
Duration : 25 min 8 s
Bit rate : 1 b/s
Count of elements : 10
Stream size : 265 Bytes (0%)
Title : Forced
Language : English
Default : No
Forced : No

Text #5
ID : 8
Format : UTF-8
Codec ID : S_TEXT/UTF8
Codec ID/Info : UTF-8 Plain Text
Duration : 2 h 5 min
Bit rate : 37 b/s
Count of elements : 1321
Stream size : 34.4 KiB (0%)
Title : Full
Language : English
Default : No
Forced : No

Text #6
ID : 9
Format : UTF-8
Codec ID : S_TEXT/UTF8
Codec ID/Info : UTF-8 Plain Text
Duration : 2 h 5 min
Bit rate : 50 b/s
Count of elements : 1906
Stream size : 46.5 KiB (0%)
Title : SDH
Language : English
Default : No
Forced : No

Menu
00:00:00.000 : en:Chapter 01
00:03:51.398 : en:Chapter 02
00:08:26.506 : en:Chapter 03
00:14:19.442 : en:Chapter 04
00:18:23.061 : en:Chapter 05
00:24:37.602 : en:Chapter 06
00:37:58.153 : en:Chapter 07
00:47:15.502 : en:Chapter 08
00:50:03.545 : en:Chapter 09
00:55:51.059 : en:Chapter 10
00:59:46.336 : en:Chapter 11
01:02:19.656 : en:Chapter 12
01:05:18.418 : en:Chapter 13
01:07:20.790 : en:Chapter 14
01:15:03.586 : en:Chapter 15
01:17:01.871 : en:Chapter 16
01:19:18.383 : en:Chapter 17
01:23:29.342 : en:Chapter 18
01:26:34.194 : en:Chapter 19
01:28:51.206 : en:Chapter 20
01:34:47.270 : en:Chapter 21
01:37:38.650 : en:Chapter 22
01:41:27.629 : en:Chapter 23
01:51:03.288 : en:Chapter 24
01:53:26.473 : en:Chapter 25
01:55:38.855 : en:Chapter 26
01:56:32.075 : en:Chapter 27
01:58:48.378 : en:Chapter 28
01:59:25.665 : en:Chapter 29

Другие фильмы
У данной публикации пока нет комментариев.
Будь первым, оставь своё мнение в комментариях!
Информация
Посетители, находящиеся в группе Гости, не могут оставлять комментарии к данной публикации.
Самый популярный релиз недели
WEB-DL 1080p 5.57 Gb ...

Кино копилка
...
Какую тему вы используете?

Реклама
Последние комментарии
...

Dimanchez

Сегодня, 10:12

...

lomoenot

Вчера, 16:43

...

ooofly

Вчера, 08:40

...

Laska020489

Вчера, 03:27

...

zombitto

29 сентября 2022 16:25