+5

Дневная смена / Day Shift (2022) WEB-DLRip-AVC от DoMiNo & селезень | P | NewComers

Информация о фильме
Название: Дневная смена
Оригинальное название: Day Shift
Год выхода: 2022
Жанр: Боевик, комедия, ужасы
Режиссер: Дж.Дж. Перри
В ролях: Джейми Фокс, Дэйв Франко, Наташа Лю Бордиццо, Миган Гуд, Карла Соуса, Стив Хоуи, Скотт Эдкинс, Оливер Мазуччи, Снуп Догг, Эрик Ланж и др.

Описание:
История трудолюбивого отца, который пытается обеспечить лучшую жизнь 8-летней дочери. Вот только его дневная работа уборщиком бассейнов — лишь прикрытие. Он зарабатывает, выслеживая и убивая вампиров.

Страна: США
Студия: 87Eleven Entertainment, Impossible Dream Entertainment, Netflix
Продолжительность: 01:53:20
Перевод: Профессиональный (многоголосый, закадровый) NewComers
Субтитры: Русские (Forced, Full), английские (SDH), украинские (Full)

Файл
Формат: Matroska
Качество: WEB-DLRip-AVC
Видео: 1024x428 at 24.000 fps, [email protected], ~2369 kbps
Аудио 1: AC3, 6 ch, ~384 kbps - | Русский | Дневная смена / Day Shift (2022) WEB-DLRip-AVC от DoMiNo & селезень | P | NewComers
Аудио 2: AC3, 6 ch, ~448 kbps - | Русский |
Формат субтитров: softsub (SRT)

Дневная смена / Day Shift (2022) WEB-DLRip-AVC от DoMiNo & селезень | P | NewComers

Авторизуйтесь для получения доступа к скачиванию

Нет аккаунта? Регистрация открыта и займёт меньше минуты

Вход Регистрация

x264 [info]: frame I:1693 Avg QP:17.95 size: 58512
x264 [info]: frame P:35124 Avg QP:19.26 size: 24469
x264 [info]: frame B:126402 Avg QP:20.51 size: 8346

General
Unique ID : 177092818595706514549631308231855109155 (0×853AD612F802B9986AEAAF1AA834F423)
Complete name : L:Day.Shift.2022.WEB-DLRip.x264.seleZen.mkv
Format : Matroska
Format version : Version 4
File size : 2.54 GiB
Duration : 1 h 53 min
Overall bit rate : 3 203 kb/s
Movie name : Day.Shift.2022.WEB-DLRip.x264.seleZen
Encoded date : UTC 12.08.2022 21:46:43
Writing application : mkvmerge v63.0.0 ('Everything') 64-bit
Writing library : libebml v1.4.2 + libmatroska v1.6.4
Cover : Yes
Attachments : cover.jpg / small_cover.jpg

Video
ID : 1
Format : AVC
Format/Info : Advanced Video Codec
Format profile : [email protected]
Format settings : CABAC / 14 Ref Frames
Format settings, CABAC : Yes
Format settings, Reference : 14 frames
Codec ID : V_MPEG4/ISO/AVC
Duration : 1 h 53 min
Bit rate : 2 369 kb/s
Width : 1 024 pixels
Height : 428 pixels
Display aspect ratio : 2.40:1
Frame rate mode : Constant
Frame rate : 24.000 FPS
Color space : YUV
Chroma subsampling : 4:2:0
Bit depth : 8 bits
Scan type : Progressive
Bits/(Pixel*Frame) : 0.225
Stream size : 1.88 GiB (74%)
Title : -=DoMiNo=-
Writing library : x264 core 164 by -=DoMiNo=-
Encoding settings : cabac=1 / ref=14 / deblock=1:-3:-3 / analyse=0×3:0×133 / me=umh / subme=10 / psy=1 / psy_rd=1.00:0.20 / mixed_ref=1 / me_range=32 / chroma_me=1 / trellis=2 / 8×8dct=1 / cqm=0 / deadzone=21,11 / fast_pskip=0 / chroma_qp_offset=-3 / threads=17 / lookahead_threads=3 / sliced_threads=0 / nr=0 / decimate=0 / interlaced=0 / bluray_compat=0 / constrained_intra=0 / bframes=10 / b_pyramid=2 / b_adapt=2 / b_bias=0 / direct=1 / weightb=1 / open_gop=0 / weightp=2 / keyint=250 / keyint_min=24 / scenecut=40 / intra_refresh=0 / rc_lookahead=60 / rc=crf / mbtree=0 / crf=20.0 / qcomp=0.65 / qpmin=0 / qpmax=69 / qpstep=4 / vbv_maxrate=50000 / vbv_bufsize=62500 / crf_max=0.0 / nal_hrd=none / filler=0 / ip_ratio=1.30 / pb_ratio=1.20 / aq=3:1.00
Language : English
Default : Yes
Forced : No

Audio #1
ID : 2
Format : AC-3
Format/Info : Audio Coding 3
Commercial name : Dolby Digital
Codec ID : A_AC3
Duration : 1 h 53 min
Bit rate mode : Constant
Bit rate : 384 kb/s
Channel (s) : 6 channels
Channel layout : L R C LFE Ls Rs
Sampling rate : 48.0 kHz
Frame rate : 31.250 FPS (1536 SPF)
Compression mode : Lossy
Stream size : 311 MiB (12%)
Title : MVO [NewComers]
Language : Russian
Service kind : Complete Main
Default : Yes
Forced : Yes

Audio #2
ID : 3
Format : AC-3
Format/Info : Audio Coding 3
Commercial name : Dolby Digital
Codec ID : A_AC3
Duration : 1 h 53 min
Bit rate mode : Constant
Bit rate : 448 kb/s
Channel (s) : 6 channels
Channel layout : L R C LFE Ls Rs
Sampling rate : 48.0 kHz
Frame rate : 31.250 FPS (1536 SPF)
Compression mode : Lossy
Stream size : 363 MiB (14%)
Title : Original
Language : English
Service kind : Complete Main
Default : No
Forced : No

Text #1
ID : 4
Format : UTF-8
Codec ID : S_TEXT/UTF8
Codec ID/Info : UTF-8 Plain Text
Duration : 1 h 26 min
Bit rate : 1 b/s
Count of elements : 18
Stream size : 891 Bytes (0%)
Title : Forced
Language : Russian
Default : Yes
Forced : No

Text #2
ID : 5
Format : UTF-8
Codec ID : S_TEXT/UTF8
Codec ID/Info : UTF-8 Plain Text
Duration : 1 h 50 min
Bit rate : 81 b/s
Count of elements : 1404
Stream size : 66.2 KiB (0%)
Title : Russian (Full)
Language : Russian
Default : No
Forced : No

Text #3
ID : 6
Format : UTF-8
Codec ID : S_TEXT/UTF8
Codec ID/Info : UTF-8 Plain Text
Duration : 1 h 48 min
Bit rate : 76 b/s
Count of elements : 1958
Stream size : 60.8 KiB (0%)
Title : English (SDH)
Language : English
Default : No
Forced : No

Text #4
ID : 7
Format : UTF-8
Codec ID : S_TEXT/UTF8
Codec ID/Info : UTF-8 Plain Text
Duration : 1 h 50 min
Bit rate : 86 b/s
Count of elements : 1402
Stream size : 70.0 KiB (0%)
Title : Ukrainan (Full)
Language : Ukrainian
Default : No
Forced : No

Другие фильмы
У данной публикации пока нет комментариев.
Будь первым, оставь своё мнение в комментариях!
Информация
Посетители, находящиеся в группе Гости, не могут оставлять комментарии к данной публикации.
Самый популярный релиз недели
WEB-DL 1080p 5.57 Gb ...

Кино копилка
...
Какую тему вы используете?

Реклама
Последние комментарии
...

Dimanchez

Сегодня, 10:12

...

lomoenot

Вчера, 16:43

...

ooofly

Вчера, 08:40

...

Laska020489

Вчера, 03:27

...

zombitto

29 сентября 2022 16:25