+1

Заговор в Голливуде / Бензиновая аллея / Gasoline Alley (2022) BDRip-AVC от DoMiNo & селезень | D

Информация о фильме
Название: Заговор в Голливуде
Оригинальное название: Gasoline Alley
Год выхода: 2022
Жанр: Боевик, триллер
Режиссер: Эдвард Дрэйк
В ролях: Девон Сава, Люк Уилсон, Кенни Вормолд, Суфе Брэдшоу, Брюс Уиллис, Кэт Фостер, Вернон Дэвис, Билли Джек Харлоу, Джейк Олстон, Майк Даргатис

О фильме:
Человек, вовлеченный в тройное убийство голливудских звезд, начинает собственное расследование. Нуждаясь в помощи, он нанимает двух детективов, чтобы разоблачить заговор, уровень опасности которого они и представить себе не могли.

Страна: США
Студия: 308 Ent, BondIt, Buffalo 8 Productions, Head Gear Films, Highland Film Group (HFG), Kreo Films FZ, Lost Winds Entertainment, Metrol Technology, Yale Productions
Продолжительность: 01:37:10
Перевод: Дублированный | iTunes
Субтитры: Английские

Файл
Формат: Matroska
Качество: BDRip-AVC [исх.Gasoline.Alley.2022.Blu-ray.1080p.AVC.DTS-HD.MA 5.1-Pete]
Видео: 1024×430 at 23.976 fps, [email protected], ~2084 kbps
Аудио 1: AC3, 6 ch, ~384 kbps — | Русский | Заговор в Голливуде / Бензиновая аллея / Gasoline Alley (2022) BDRip-AVC от DoMiNo & селезень | D
Аудио 2: AC3, 6 ch, ~448 kbps — | Английский |
Формат субтитров: softsub (SRT)

Заговор в Голливуде / Бензиновая аллея / Gasoline Alley (2022) BDRip-AVC от DoMiNo & селезень | D

Авторизуйтесь для получения доступа к скачиванию

Нет аккаунта? Регистрация открыта и займёт меньше минуты

Вход Регистрация

x264 [info]: frame I:946 Avg QP:18.06 size: 51682
x264 [info]: frame P:24982 Avg QP:19.12 size: 25094
x264 [info]: frame B:113871 Avg QP:20.86 size: 7405

General
Unique ID : 34558518973042317550412320235077299990 (0×19FFBA88F67692B882BB8D73B874EF16)
Complete name : D:Gasoline.Alley.2022.BDRip.x264.seleZen.mkv
Format : Matroska
Format version : Version 4
File size : 1.98 GiB
Duration : 1 h 37 min
Overall bit rate : 2 918 kb/s
Movie name : Gasoline.Alley.2022.BDRip.x264.seleZen
Encoded date : UTC 12.08.2022 09:34:38
Writing application : mkvmerge v63.0.0 ('Everything') 64-bit
Writing library : libebml v1.4.2 + libmatroska v1.6.4
Cover : Yes
Attachments : cover.jpg / small_cover.jpg

Video
ID : 1
Format : AVC
Format/Info : Advanced Video Codec
Format profile : [email protected]
Format settings : CABAC / 12 Ref Frames
Format settings, CABAC : Yes
Format settings, Reference : 12 frames
Codec ID : V_MPEG4/ISO/AVC
Duration : 1 h 37 min
Bit rate : 2 084 kb/s
Width : 1 024 pixels
Height : 430 pixels
Display aspect ratio : 2.40:1
Frame rate mode : Constant
Frame rate : 23.976 (24000/1001) FPS
Color space : YUV
Chroma subsampling : 4:2:0
Bit depth : 8 bits
Scan type : Progressive
Bits/(Pixel*Frame) : 0.197
Stream size : 1.41 GiB (71%)
Title : -=DoMiNo=-
Writing library : x264 core 164 by -=DoMiNo=-
Encoding settings : cabac=1 / ref=12 / deblock=1:-3:-3 / analyse=0×3:0×133 / me=umh / subme=11 / psy=1 / psy_rd=1.02:0.02 / mixed_ref=1 / me_range=32 / chroma_me=1 / trellis=2 / 8×8dct=1 / cqm=0 / deadzone=21,11 / fast_pskip=0 / chroma_qp_offset=-3 / threads=17 / lookahead_threads=3 / sliced_threads=0 / nr=0 / decimate=0 / interlaced=0 / bluray_compat=0 / constrained_intra=0 / bframes=14 / b_pyramid=2 / b_adapt=2 / b_bias=0 / direct=1 / weightb=1 / open_gop=0 / weightp=2 / keyint=250 / keyint_min=23 / scenecut=40 / intra_refresh=0 / rc_lookahead=60 / rc=crf / mbtree=0 / crf=19.5 / qcomp=0.65 / qpmin=0 / qpmax=69 / qpstep=4 / vbv_maxrate=50000 / vbv_bufsize=62500 / crf_max=0.0 / nal_hrd=none / filler=0 / ip_ratio=1.30 / pb_ratio=1.30 / aq=3:0.80
Language : English
Default : Yes
Forced : No
Color range : Limited
Color primaries : BT.709
Transfer characteristics : BT.709
Matrix coefficients : BT.709

Audio #1
ID : 2
Format : AC-3
Format/Info : Audio Coding 3
Commercial name : Dolby Digital
Codec ID : A_AC3
Duration : 1 h 37 min
Bit rate mode : Constant
Bit rate : 384 kb/s
Channel (s) : 6 channels
Channel layout : L R C LFE Ls Rs
Sampling rate : 48.0 kHz
Frame rate : 31.250 FPS (1536 SPF)
Compression mode : Lossy
Stream size : 267 MiB (13%)
Title : Dub
Language : Russian
Service kind : Complete Main
Default : Yes
Forced : Yes

Audio #2
ID : 3
Format : AC-3
Format/Info : Audio Coding 3
Commercial name : Dolby Digital
Codec ID : A_AC3
Duration : 1 h 37 min
Bit rate mode : Constant
Bit rate : 448 kb/s
Channel (s) : 6 channels
Channel layout : L R C LFE Ls Rs
Sampling rate : 48.0 kHz
Frame rate : 31.250 FPS (1536 SPF)
Compression mode : Lossy
Stream size : 311 MiB (15%)
Language : English
Service kind : Complete Main
Default : No
Forced : No

Text
ID : 4
Format : UTF-8
Codec ID : S_TEXT/UTF8
Codec ID/Info : UTF-8 Plain Text
Duration : 1 h 31 min
Bit rate : 51 b/s
Count of elements : 1253
Stream size : 34.8 KiB (0%)
Title : Full
Language : English
Default : No
Forced : No

Menu
00:00:00.000 : :Chapter 01
00:15:07.489 : :Chapter 02
00:25:28.902 : :Chapter 03
00:36:04.203 : :Chapter 04
00:50:58.847 : :Chapter 05
01:03:22.715 : :Chapter 06
01:15:41.828 : :Chapter 07
01:35:31.016 : :Chapter 08
01:37:10.741 : :Chapter 09

Другие фильмы
У данной публикации пока нет комментариев.
Будь первым, оставь своё мнение в комментариях!
Информация
Посетители, находящиеся в группе Гости, не могут оставлять комментарии к данной публикации.
Самый популярный релиз недели
WEB-DL 1080p 5.57 Gb ...

Кино копилка
...
Какую тему вы используете?

Реклама
Последние комментарии
...

Dimanchez

Сегодня, 10:12

...

lomoenot

Вчера, 16:43

...

ooofly

Вчера, 08:40

...

Laska020489

Вчера, 03:27

...

zombitto

29 сентября 2022 16:25