+4

Я краснею / Turning Red (2022) BDRip 1080p от селезень | D

Информация о фильме
Название: Я краснею
Оригинальное название: Turning Red
Год выхода: 2022
Жанр: мультфильм, фэнтези, комедия, приключения, семейный
Режиссер: Доми Ши
В ролях: Розали Чян, Сандра О, Ава Морс, Пак Хе-ин, Майтреи Рамакришнан, Орион Ли, Вай Чин Хо, Тристан Аллерик Чен, Лори Тан Чинн, Миа Тагано

О фильме: Торонто, 2002 год. Активная и неунывающая 13-летняя Мэйлинь всеми силами пытается быть первой во всём, чтобы угодить строгой гиперопекающей матери. Семья девочки живёт при храме и поклоняется Богине-прародительнице. Одним прекрасным утром Мэйлинь просыпается и вместо привычного отражения в зеркале видит красную панду - теперь, когда она волнуется, злится или испытывает другие сильные эмоции, превращается в большого зверя. Мало того, что это происходит в самые неподходящие моменты, так ещё и посещение концерта обожаемой Мэйлинь и её подружками мальчиковой группы 4-Town оказывается под угрозой.

Страна: США, Канада
Студия: Pixar Animation Studios, Walt Disney Pictures
Продолжительность: 01:39:40
Перевод: Дублированный

Качество: BDRip 1080p
Видео: MPEG-4 AVC, 1920x1036, 13.0 Mbit/s, 23.976 fps
Аудио #01: 48 kHz, AC3, 5.1, 448 Kbps | Дублированный | RUS |Я краснею / Turning Red (2022) BDRip 1080p от селезень | D
Аудио #02: 48 kHz, AC3, 5.1, 640 Kbps | Оригинал | ENG |
Субтитры: Русские (Forced, Full), английские

Я краснею / Turning Red (2022) BDRip 1080p от селезень | D

Авторизуйтесь для получения доступа к скачиванию

Нет аккаунта? Регистрация открыта и займёт меньше минуты

Вход Регистрация

General
Unique ID : 324950678373015820698787231080942355224 (0xF4773964B2411BE4CA73AE8EBDDF4318)
Complete name : D:\Turning.Red.2022.D.BDRip.1080p.seleZen.mkv
Format : Matroska
Format version : Version 4
File size : 9.81 GiB
Duration : 1 h 39 min
Overall bit rate : 14.1 Mb/s
Movie name : Turning Red 2022 from seleZen
Encoded date : UTC 2022-08-11 02:24:33
Writing application : mkvmerge v59.0.0 ('Shining Star') 64-bit
Writing library : libebml v1.4.2 + libmatroska v1.6.4

Video
ID : 1
Format : AVC
Format/Info : Advanced Video Codec
Format profile : [email protected]
Format settings : CABAC / 4 Ref Frames
Format settings, CABAC : Yes
Format settings, Reference : 4 frames
Codec ID : V_MPEG4/ISO/AVC
Duration : 1 h 39 min
Bit rate : 13.0 Mb/s
Width : 1 920 pixels
Height : 1 036 pixels
Display aspect ratio : 1.85:1
Frame rate mode : Constant
Frame rate : 23.976 (24000/1001) FPS
Color space : YUV
Chroma subsampling : 4:2:0
Bit depth : 8 bits
Scan type : Progressive
Bits/(Pixel*Frame) : 0.273
Stream size : 9.05 GiB (92%)
Writing library : x264 core 164 r3085+55M seleZen t_mod_New [(8 & 10)[email protected] X86_64]
Encoding settings : cabac=1 / ref=4 / deblock=1:-2:-2 / analyse=0x3:0x133 / me=umh / subme=11 / psy=1 / fade_compensate=0.00 / psy_rd=1.04:0.02 / mixed_ref=1 / me_range=48 / chroma_me=1 / trellis=2 / 8x8dct=1 / cqm=0 / deadzone=21,11 / fast_pskip=0 / chroma_qp_offset=-3 / threads=32 / lookahead_threads=5 / sliced_threads=0 / nr=0 / decimate=0 / interlaced=0 / bluray_compat=0 / constrained_intra=0 / fgo=0 / bframes=9 / b_pyramid=2 / b_adapt=2 / b_bias=0 / direct=3 / weightb=1 / open_gop=0 / weightp=2 / keyint=240 / keyint_min=23 / scenecut=40 / intra_refresh=0 / rc_lookahead=60 / rc=2pass / mbtree=0 / bitrate=13000 / ratetol=1.0 / qcomp=0.60 / qpmin=0:0:0 / qpmax=51:51:51 / qpstep=4 / cplxblur=20.0 / qblur=0.5 / vbv_maxrate=50000 / vbv_bufsize=62500 / nal_hrd=none / filler=0 / ip_ratio=1.40 / pb_ratio=1.30 / aq=3:0.80 / aq-sensitivity=10.00 / aq-factor=1.00:1.00:1.00 / aq2=0 / aq3=0
Language : English
Default : Yes
Forced : No

Audio #1
ID : 2
Format : AC-3
Format/Info : Audio Coding 3
Commercial name : Dolby Digital
Codec ID : A_AC3
Duration : 1 h 39 min
Bit rate mode : Constant
Bit rate : 448 kb/s
Channel(s) : 6 channels
Channel layout : L R C LFE Ls Rs
Sampling rate : 48.0 kHz
Frame rate : 31.250 FPS (1536 SPF)
Compression mode : Lossy
Stream size : 319 MiB (3%)
Title : Dub
Language : Russian
Service kind : Complete Main
Default : Yes
Forced : Yes

Audio #2
ID : 3
Format : AC-3
Format/Info : Audio Coding 3
Commercial name : Dolby Digital
Codec ID : A_AC3
Duration : 1 h 39 min
Bit rate mode : Constant
Bit rate : 640 kb/s
Channel(s) : 6 channels
Channel layout : L R C LFE Ls Rs
Sampling rate : 48.0 kHz
Frame rate : 31.250 FPS (1536 SPF)
Compression mode : Lossy
Stream size : 456 MiB (5%)
Title : Original
Language : English
Service kind : Complete Main
Default : No
Forced : No

Text #1
ID : 4
Format : UTF-8
Codec ID : S_TEXT/UTF8
Codec ID/Info : UTF-8 Plain Text
Duration : 1 h 27 min
Bit rate : 0 b/s
Frame rate : 0.002 FPS
Count of elements : 12
Stream size : 548 Bytes (0%)
Title : Forced
Language : Russian
Default : Yes
Forced : Yes

Text #2
ID : 5
Format : UTF-8
Codec ID : S_TEXT/UTF8
Codec ID/Info : UTF-8 Plain Text
Duration : 1 h 37 min
Bit rate : 92 b/s
Frame rate : 0.253 FPS
Count of elements : 1487
Stream size : 66.2 KiB (0%)
Title : Full
Language : Russian
Default : No
Forced : No

Text #3
ID : 6
Format : UTF-8
Codec ID : S_TEXT/UTF8
Codec ID/Info : UTF-8 Plain Text
Duration : 1 h 37 min
Bit rate : 58 b/s
Frame rate : 0.288 FPS
Count of elements : 1694
Stream size : 42.0 KiB (0%)
Title : Full
Language : English
Default : No
Forced : No

Text #4
ID : 7
Format : UTF-8
Codec ID : S_TEXT/UTF8
Codec ID/Info : UTF-8 Plain Text
Duration : 1 h 38 min
Bit rate : 76 b/s
Frame rate : 0.363 FPS
Count of elements : 2138
Stream size : 54.7 KiB (0%)
Title : SDH
Language : English
Default : No
Forced : No

Menu
00:00:00.000 : Chapter 01
00:03:18.323 : Chapter 02
00:06:09.494 : Chapter 03
00:09:26.816 : Chapter 04
00:10:48.481 : Chapter 05
00:15:19.210 : Chapter 06
00:16:06.549 : Chapter 07
00:19:56.111 : Chapter 08
00:23:50.721 : Chapter 09
00:26:51.902 : Chapter 10
00:31:08.783 : Chapter 11
00:36:04.704 : Chapter 12
00:37:58.401 : Chapter 13
00:39:56.018 : Chapter 14
00:42:44.812 : Chapter 15
00:45:28.434 : Chapter 16
00:48:08.427 : Chapter 17
00:50:08.130 : Chapter 18
00:52:51.876 : Chapter 19
00:55:07.887 : Chapter 20
00:56:27.592 : Chapter 21
00:59:53.506 : Chapter 22
01:01:54.001 : Chapter 23
01:03:31.432 : Chapter 24
01:05:53.240 : Chapter 25
01:11:10.224 : Chapter 26
01:14:42.144 : Chapter 27
01:18:46.179 : Chapter 28
01:21:37.350 : Chapter 29
01:26:53.791 : Chapter 30
01:28:56.956 : Chapter 31
01:38:38.328 : Chapter 32

Другие фильмы
У данной публикации пока нет комментариев.
Будь первым, оставь своё мнение в комментариях!
Информация
Посетители, находящиеся в группе Гости, не могут оставлять комментарии к данной публикации.
Самый популярный релиз недели
WEB-DL 1080p 5.57 Gb ...

Кино копилка
...
Какую тему вы используете?

Реклама
Последние комментарии
...

Dimanchez

Сегодня, 10:12

...

lomoenot

Вчера, 16:43

...

ooofly

Вчера, 08:40

...

Laska020489

Вчера, 03:27

...

zombitto

29 сентября 2022 16:25