+2

Обыграть миллиардера / Игра в Бога / Playing God (2021) WEB-DLRip-AVC от DoMiNo & селезень | D

Информация о фильме
Название: Обыграть миллиардера / Игра в Бога
Оригинальное название: Playing God
Год выхода: 2021
Жанр: Драма, комедия
Режиссер: Скотт Бриньяк
В ролях: Ханна Касулка, Люк Бенвард, Джуд Деморест, Марк Менчака, Майкл МакКин, Алан Тьюдик, Лейтон Б. Аллен, Рауль Каноли, Эль Ламонт, Ихеаначо Орабучи

О фильме:
Двое мошенников нанимают своего давнего наставника «сыграть» Бога, чтобы обмануть скорбящего миллиардера.

Страна: США
Студия: Ralph Smyth Entertainment, Watershed Motion Pictures
Продолжительность: 01:35:25
Перевод: Профессиональный (полное дублирование) | Paragraph Media
Субтитры: Английские

Файл
Формат: Matroska
Качество: WEB-DLRip-AVC
Видео: 1024×424 at 23.976 fps, [email protected], ~1702 kbps
Аудио 1: AC3, 6 ch, ~448 kbps — | Русский | Обыграть миллиардера / Игра в Бога / Playing God (2021) WEB-DLRip-AVC от DoMiNo & селезень | D
Аудио 2: AC3, 6 ch, ~384 kbps — | Английский |
Формат субтитров: softsub (SRT)

Обыграть миллиардера / Игра в Бога / Playing God (2021) WEB-DLRip-AVC от DoMiNo & селезень | D

Авторизуйтесь для получения доступа к скачиванию

Нет аккаунта? Регистрация открыта и займёт меньше минуты

Вход Регистрация

x264 [info]: frame I:1318 Avg QP:16.89 size: 53644
x264 [info]: frame P:29482 Avg QP:17.37 size: 19062
x264 [info]: frame B:106475 Avg QP:18.42 size: 5500

General
Unique ID : 211484863124768348039991365432594859952 (0×9F1A80C90AD718BBB79D401E062707B0)
Complete name : D:Playing.God.2021.WEB-DLRip.x264.seleZen.mkv
Format : Matroska
Format version : Version 4
File size : 1.69 GiB
Duration : 1 h 35 min
Overall bit rate : 2 537 kb/s
Movie name : Playing.God.2021.WEB-DLRip.x264.seleZen
Encoded date : UTC 08.08.2022 15:03:49
Writing application : mkvmerge v63.0.0 ('Everything') 64-bit
Writing library : libebml v1.4.2 + libmatroska v1.6.4
Cover : Yes
Attachments : cover.jpg / small_cover.jpg

Video
ID : 1
Format : AVC
Format/Info : Advanced Video Codec
Format profile : [email protected]
Format settings : CABAC / 12 Ref Frames
Format settings, CABAC : Yes
Format settings, Reference : 12 frames
Codec ID : V_MPEG4/ISO/AVC
Duration : 1 h 35 min
Bit rate : 1 702 kb/s
Width : 1 024 pixels
Height : 424 pixels
Display aspect ratio : 2.40:1
Frame rate mode : Constant
Frame rate : 23.976 (24000/1001) FPS
Color space : YUV
Chroma subsampling : 4:2:0
Bit depth : 8 bits
Scan type : Progressive
Bits/(Pixel*Frame) : 0.164
Stream size : 1.13 GiB (67%)
Title : -=DoMiNo=-
Writing library : x264 core 164 by -=DoMiNo=-
Encoding settings : cabac=1 / ref=12 / deblock=1:-3:-3 / analyse=0×3:0×133 / me=umh / subme=10 / psy=1 / psy_rd=1.02:0.20 / mixed_ref=1 / me_range=32 / chroma_me=1 / trellis=2 / 8×8dct=1 / cqm=0 / deadzone=21,11 / fast_pskip=0 / chroma_qp_offset=-3 / threads=17 / lookahead_threads=3 / sliced_threads=0 / nr=0 / decimate=0 / interlaced=0 / bluray_compat=0 / constrained_intra=0 / bframes=10 / b_pyramid=2 / b_adapt=2 / b_bias=0 / direct=1 / weightb=1 / open_gop=0 / weightp=2 / keyint=250 / keyint_min=23 / scenecut=40 / intra_refresh=0 / rc_lookahead=60 / rc=crf / mbtree=0 / crf=20.0 / qcomp=0.65 / qpmin=0 / qpmax=69 / qpstep=4 / vbv_maxrate=50000 / vbv_bufsize=62500 / crf_max=0.0 / nal_hrd=none / filler=0 / ip_ratio=1.30 / pb_ratio=1.20 / aq=3:1.20
Language : English
Default : Yes
Forced : No

Audio #1
ID : 2
Format : AC-3
Format/Info : Audio Coding 3
Commercial name : Dolby Digital
Codec ID : A_AC3
Duration : 1 h 35 min
Bit rate mode : Constant
Bit rate : 448 kb/s
Channel (s) : 6 channels
Channel layout : L R C LFE Ls Rs
Sampling rate : 48.0 kHz
Frame rate : 31.250 FPS (1536 SPF)
Compression mode : Lossy
Stream size : 306 MiB (18%)
Title : DUB [Paragraph Media]
Language : Russian
Service kind : Complete Main
Default : Yes
Forced : Yes

Audio #2
ID : 3
Format : AC-3
Format/Info : Audio Coding 3
Commercial name : Dolby Digital
Codec ID : A_AC3
Duration : 1 h 35 min
Bit rate mode : Constant
Bit rate : 384 kb/s
Channel (s) : 6 channels
Channel layout : L R C LFE Ls Rs
Sampling rate : 48.0 kHz
Frame rate : 31.250 FPS (1536 SPF)
Compression mode : Lossy
Stream size : 262 MiB (15%)
Title : Original
Language : English
Service kind : Complete Main
Default : No
Forced : No

Text
ID : 4
Format : UTF-8
Codec ID : S_TEXT/UTF8
Codec ID/Info : UTF-8 Plain Text
Duration : 1 h 30 min
Bit rate : 46 b/s
Count of elements : 1151
Stream size : 30.8 KiB (0%)
Title : Full
Language : English
Default : No
Forced : No

Другие фильмы
У данной публикации пока нет комментариев.
Будь первым, оставь своё мнение в комментариях!
Информация
Посетители, находящиеся в группе Гости, не могут оставлять комментарии к данной публикации.
Самый популярный релиз недели
WEB-DL 1080p 5.57 Gb ...

Кино копилка
...
Какую тему вы используете?

Реклама
Последние комментарии
...

Dimanchez

Сегодня, 10:12

...

lomoenot

Вчера, 16:43

...

ooofly

Вчера, 08:40

...

Laska020489

Вчера, 03:27

...

zombitto

29 сентября 2022 16:25