+7

Базз Лайтер / Lightyear (2022) WEB-DL 720p от DoMiNo & селезень | D, P | IMAX Edition

Информация о фильме
Название: Базз Лайтер
Оригинальное название: Lightyear
Год выпуска: 2022
Жанр: Мультфильм, фантастика, боевик, драма, приключения, семейный
Режиссер: Энгус МакЛэйн
В ролях: Крис Эванс, Кеке Палмер, Питер Сон, Тайка Вайтити, Дэйл Соулс, Джеймс Бролин, Узо Адуба, Мэри МаДональд-Льюис, Исайя Уитлок мл., Энгус МакЛэйн

О фильме:
История молодого летчика-испытателя Базза Лайтера, ставшего тем самым космическим рейнджером, каким его знают сегодня.

Страна: США
Студия: Pixar, Pixar Animation Studios, Walt Disney Pictures
Продолжительность: 01:45:05
Перевод 1: Дублированный | Red Head Sound
Перевод 2: Профессиональный (многоголосый, закадровый) | Jaskier
Перевод 3: Профессиональный (многоголосый, закадровый) | TVShows
Субтитры: Русские (форсированные, полные), английские

Файл
Формат: Matroska
Качество: WEB-DL 720p | IMAX Edition
Видео: 1280x720 at 23.976 fps, [email protected], ~3500 kbps
Аудио 1: AC3, 6 ch, ~640 kbps - | Русский | Базз Лайтер / Lightyear (2022) WEB-DL 720p от DoMiNo & селезень | D, P | IMAX Edition | Red Head Sound
Аудио 2: AC3, 6 ch, ~384 kbps - | Русский | | Jaskier
Аудио 3: AC3, 2 ch, ~192 kbps - | Русский | | TVShows
Аудио 4: AC3, 6 ch, ~448 kbps - | Английский | | Оригинал
Формат субтитров: softsub (SRT)

Базз Лайтер / Lightyear (2022) WEB-DL 720p от DoMiNo & селезень | D, P | IMAX Edition

Авторизуйтесь для получения доступа к скачиванию

Нет аккаунта? Регистрация открыта и займёт меньше минуты

Вход Регистрация

General
Unique ID : 166718971494111423273836637880693428665 (0×7D6CE7EC5365D8BEDA587FBDDF6211B9)
Complete name : K:Lightyear.2022.IMAX.WEB-DL.720p.x264.seleZen.mkv
Format : Matroska
Format version : Version 4
File size : 3.79 GiB
Duration : 1 h 45 min
Overall bit rate mode : Variable
Overall bit rate : 5 168 kb/s
Movie name : Lightyear.2022.IMAX.WEB-DL.720p.x264.seleZen
Encoded date : UTC 14.08.2022 07:50:54
Writing application : mkvmerge v63.0.0 ('Everything') 64-bit
Writing library : libebml v1.4.2 + libmatroska v1.6.4
Cover : Yes
Attachments : cover.jpg / small_cover.jpg

Video
ID : 1
Format : AVC
Format/Info : Advanced Video Codec
Format profile : [email protected]
Format settings : CABAC / 4 Ref Frames
Format settings, CABAC : Yes
Format settings, Reference : 4 frames
Codec ID : V_MPEG4/ISO/AVC
Duration : 1 h 45 min
Bit rate mode : Variable
Bit rate : 3 500 kb/s
Maximum bit rate : 6 375 kb/s
Width : 1 280 pixels
Height : 720 pixels
Display aspect ratio : 16:9
Frame rate mode : Constant
Frame rate : 23.976 (24000/1001) FPS
Color space : YUV
Chroma subsampling : 4:2:0
Bit depth : 8 bits
Scan type : Progressive
Bits/(Pixel*Frame) : 0.158
Stream size : 2.57 GiB (68%)
Language : English
Default : Yes
Forced : No
Color range : Limited
Color primaries : BT.709
Transfer characteristics : BT.709
Matrix coefficients : BT.709

Audio #1
ID : 2
Format : AC-3
Format/Info : Audio Coding 3
Commercial name : Dolby Digital
Codec ID : A_AC3
Duration : 1 h 45 min
Bit rate mode : Constant
Bit rate : 640 kb/s
Channel (s) : 6 channels
Channel layout : L R C LFE Ls Rs
Sampling rate : 48.0 kHz
Frame rate : 31.250 FPS (1536 SPF)
Compression mode : Lossy
Stream size : 481 MiB (12%)
Title : Dub [Red Head Sound]
Language : Russian
Service kind : Complete Main
Default : Yes
Forced : Yes

Audio #2
ID : 3
Format : AC-3
Format/Info : Audio Coding 3
Commercial name : Dolby Digital
Codec ID : A_AC3
Duration : 1 h 45 min
Bit rate mode : Constant
Bit rate : 384 kb/s
Channel (s) : 6 channels
Channel layout : L R C LFE Ls Rs
Sampling rate : 48.0 kHz
Frame rate : 31.250 FPS (1536 SPF)
Compression mode : Lossy
Stream size : 289 MiB (7%)
Title : MVO [Jaskier]
Language : Russian
Service kind : Complete Main
Default : No
Forced : No

Audio #3
ID : 4
Format : AC-3
Format/Info : Audio Coding 3
Commercial name : Dolby Digital
Codec ID : A_AC3
Duration : 1 h 45 min
Bit rate mode : Constant
Bit rate : 192 kb/s
Channel (s) : 2 channels
Channel layout : L R
Sampling rate : 48.0 kHz
Frame rate : 31.250 FPS (1536 SPF)
Compression mode : Lossy
Stream size : 144 MiB (4%)
Title : MVO [TVShows]
Language : Russian
Service kind : Complete Main
Default : No
Forced : No

Audio #4
ID : 5
Format : AC-3
Format/Info : Audio Coding 3
Commercial name : Dolby Digital
Codec ID : A_AC3
Duration : 1 h 45 min
Bit rate mode : Constant
Bit rate : 448 kb/s
Channel (s) : 6 channels
Channel layout : L R C LFE Ls Rs
Sampling rate : 48.0 kHz
Frame rate : 31.250 FPS (1536 SPF)
Compression mode : Lossy
Stream size : 337 MiB (9%)
Title : Original
Language : English
Service kind : Complete Main
Default : No
Forced : No

Text #1
ID : 6
Format : UTF-8
Codec ID : S_TEXT/UTF8
Codec ID/Info : UTF-8 Plain Text
Duration : 1 h 33 min
Bit rate : 0 b/s
Count of elements : 9
Stream size : 592 Bytes (0%)
Title : Forced
Language : Russian
Default : Yes
Forced : No

Text #2
ID : 7
Format : UTF-8
Codec ID : S_TEXT/UTF8
Codec ID/Info : UTF-8 Plain Text
Duration : 1 h 43 min
Bit rate : 105 b/s
Count of elements : 1057
Stream size : 79.8 KiB (0%)
Title : Full
Language : Russian
Default : No
Forced : No

Text #3
ID : 8
Format : UTF-8
Codec ID : S_TEXT/UTF8
Codec ID/Info : UTF-8 Plain Text
Duration : 1 h 42 min
Bit rate : 63 b/s
Count of elements : 1667
Stream size : 47.5 KiB (0%)
Title : Full
Language : English
Default : No
Forced : No

Text #4
ID : 9
Format : UTF-8
Codec ID : S_TEXT/UTF8
Codec ID/Info : UTF-8 Plain Text
Duration : 1 h 44 min
Bit rate : 76 b/s
Count of elements : 2076
Stream size : 58.3 KiB (0%)
Title : SDH
Language : English
Default : No
Forced : No

Menu
01:33:47.211 : en:Credits
01:35:51.668 : en:Post-Credits Scene 1
01:43:36.425 : en:Post-Credits Scene 2
01:44:44.493 : en:Post-Credits Scene 3

Другие фильмы
У данной публикации пока нет комментариев.
Будь первым, оставь своё мнение в комментариях!
Информация
Посетители, находящиеся в группе Гости, не могут оставлять комментарии к данной публикации.
Самый популярный релиз недели
WEB-DL 1080p 5.57 Gb ...

Кино копилка
...
Какую тему вы используете?

Реклама
Последние комментарии
...

Dimanchez

Сегодня, 10:12

...

lomoenot

Вчера, 16:43

...

ooofly

Вчера, 08:40

...

Laska020489

Вчера, 03:27

...

zombitto

29 сентября 2022 16:25