+7

Пропавшая / Last Seen Alive (2022) BDRip-AVC от DoMiNo & селезень | D, P, A

Информация о фильме
Название: Пропавшая
Оригинальное название: Last Seen Alive
Год выпуска: 2022
Жанр: Боевик, Триллер
Режиссер: Брайан Гудман / Brian Goodman
В ролях: Джерард Батлер, Джейми Александер, Расселл Хорнсби, Алекс Алифиренко мл., Эмили Бринкс, Билли Бёрнс, Дэни Детте, Робин Флетчер, Дэвид Гурул, Брайс Энтони Хеллер, Синди Хоган, Альфонсо А’Кен-Атен Джексон, Дэвид Каллауэй, Чип Лэйн, Саманта Лоулесс

О фильме:
Уилл Спэнн везет свою жену, с которой они собираются разводиться, домой к её родителям. Во время остановки на заправке супруга странным образом бесследно исчезает. Уилл поднимает на уши местную полицию и вместе с родителями жены пытается найти её. Однако со временем подозрение падает на него самого.

Страна: США
Студия: G-BASE, Marc Frydman Productions, Perfection Hunter Productions, Voltage Pictures
Продолжительность: 01:35:12
Перевод:
#1: Дублированный | Кинопоиск HD
#2: Профессиональный многоголосый | TVShows
#3: Авторский | Д. Есарев
Субтитры: Английские

Файл
Формат: Matroska
Качество: BDRip-AVC
Видео: 1024×512 at 23.976 fps, [email protected], ~2242 kbps
Аудио 1: AC3, 6 ch, ~448 kbps — | Русский | Пропавшая / Last Seen Alive (2022) BDRip-AVC от DoMiNo & селезень | D, P, A | DUB | Кинопоиск HD
Аудио 2: AC3, 2 ch, ~192 kbps — | Русский | | MVO | TVShows
Аудио 2: AC3, 6 ch, ~384 kbps — | Русский | | AVO | Д. Есарев
Аудио 2: AC3, 6 ch, ~448 kbps — | Английский | | Original
Формат субтитров: softsub (SRT)

Пропавшая / Last Seen Alive (2022) BDRip-AVC от DoMiNo & селезень | D, P, A

Авторизуйтесь для получения доступа к скачиванию

Нет аккаунта? Регистрация открыта и займёт меньше минуты

Вход Регистрация

x264 [info]: frame I:970 Avg QP:15.32 size: 65794
x264 [info]: frame P:33711 Avg QP:17.70 size: 23985
x264 [info]: frame B:102287 Avg QP:19.69 size: 7123

General
Unique ID : 202173416620024611588091804661370043136 (0x98192F0724DA6C973C75FA942F3FBB00)
Complete name : D:DELtLast.Seen.Alive.2022.BDRip.x264.seleZen.mkv
Format : Matroska
Format version : Version 4
File size : 2.47 GiB
Duration : 1 h 35 min
Overall bit rate : 3 717 kb/s
Movie name : Last.Seen.Alive.2022.BDRip.x264.seleZen
Encoded date : UTC 2022-08-11 08:09:09
Writing application : mkvmerge v63.0.0 ('Everything') 64-bit
Writing library : libebml v1.4.2 + libmatroska v1.6.4
Cover : Yes
Attachments : cover.jpg / small_cover.jpg

Video
ID : 1
Format : AVC
Format/Info : Advanced Video Codec
Format profile : [email protected]
Format settings : CABAC / 12 Ref Frames
Format settings, CABAC : Yes
Format settings, Reference : 12 frames
Codec ID : V_MPEG4/ISO/AVC
Duration : 1 h 35 min
Bit rate : 2 242 kb/s
Width : 1 024 pixels
Height : 512 pixels
Display aspect ratio : 2.000
Frame rate mode : Constant
Frame rate : 23.976 (24000/1001) FPS
Color space : YUV
Chroma subsampling : 4:2:0
Bit depth : 8 bits
Scan type : Progressive
Bits/(Pixel*Frame) : 0.178
Stream size : 1.49 GiB (60%)
Title : -=DoMiNo=-
Writing library : x264 core 164 by -=DoMiNo=-
Encoding settings : cabac=1 / ref=12 / deblock=1:-3:-3 / analyse=0x3:0x133 / me=umh / subme=11 / psy=1 / psy_rd=1.03:0.02 / mixed_ref=1 / me_range=32 / chroma_me=1 / trellis=2 / 8x8dct=1 / cqm=0 / deadzone=21,11 / fast_pskip=0 / chroma_qp_offset=-3 / threads=17 / lookahead_threads=4 / sliced_threads=0 / nr=0 / decimate=0 / interlaced=0 / bluray_compat=0 / constrained_intra=0 / bframes=12 / b_pyramid=2 / b_adapt=2 / b_bias=0 / direct=1 / weightb=1 / open_gop=0 / weightp=2 / keyint=250 / keyint_min=23 / scenecut=40 / intra_refresh=0 / rc_lookahead=60 / rc=crf / mbtree=0 / crf=17.8 / qcomp=0.65 / qpmin=0 / qpmax=69 / qpstep=4 / vbv_maxrate=50000 / vbv_bufsize=62500 / crf_max=0.0 / nal_hrd=none / filler=0 / ip_ratio=1.35 / pb_ratio=1.25 / aq=3:0.80
Language : English
Default : Yes
Forced : No

Audio #1
ID : 2
Format : AC-3
Format/Info : Audio Coding 3
Commercial name : Dolby Digital
Codec ID : A_AC3
Duration : 1 h 35 min
Bit rate mode : Constant
Bit rate : 448 kb/s
Channel(s) : 6 channels
Channel layout : L R C LFE Ls Rs
Sampling rate : 48.0 kHz
Frame rate : 31.250 FPS (1536 SPF)
Compression mode : Lossy
Stream size : 305 MiB (12%)
Title : Dub
Language : Russian
Service kind : Complete Main
Default : Yes
Forced : Yes

Audio #2
ID : 3
Format : AC-3
Format/Info : Audio Coding 3
Commercial name : Dolby Digital
Codec ID : A_AC3
Duration : 1 h 35 min
Bit rate mode : Constant
Bit rate : 192 kb/s
Channel(s) : 2 channels
Channel layout : L R
Sampling rate : 48.0 kHz
Frame rate : 31.250 FPS (1536 SPF)
Compression mode : Lossy
Stream size : 131 MiB (5%)
Title : MVO [TVShows]
Language : Russian
Service kind : Complete Main
Default : No
Forced : No

Audio #3
ID : 4
Format : AC-3
Format/Info : Audio Coding 3
Commercial name : Dolby Digital
Codec ID : A_AC3
Duration : 1 h 35 min
Bit rate mode : Constant
Bit rate : 384 kb/s
Channel(s) : 6 channels
Channel layout : L R C LFE Ls Rs
Sampling rate : 48.0 kHz
Frame rate : 31.250 FPS (1536 SPF)
Compression mode : Lossy
Stream size : 261 MiB (10%)
Title : AVO [Yesarev]
Language : Russian
Service kind : Complete Main
Default : No
Forced : No

Audio #4
ID : 5
Format : AC-3
Format/Info : Audio Coding 3
Commercial name : Dolby Digital
Codec ID : A_AC3
Duration : 1 h 35 min
Bit rate mode : Constant
Bit rate : 448 kb/s
Channel(s) : 6 channels
Channel layout : L R C LFE Ls Rs
Sampling rate : 48.0 kHz
Frame rate : 31.250 FPS (1536 SPF)
Compression mode : Lossy
Stream size : 305 MiB (12%)
Title : Original
Language : English
Service kind : Complete Main
Default : No
Forced : No

Text #1
ID : 6
Format : UTF-8
Codec ID : S_TEXT/UTF8
Codec ID/Info : UTF-8 Plain Text
Duration : 1 h 28 min
Bit rate : 56 b/s
Count of elements : 1173
Stream size : 36.4 KiB (0%)
Title : Full
Language : English
Default : No
Forced : No

Text #2
ID : 7
Format : UTF-8
Codec ID : S_TEXT/UTF8
Codec ID/Info : UTF-8 Plain Text
Duration : 1 h 28 min
Bit rate : 65 b/s
Count of elements : 1401
Stream size : 42.5 KiB (0%)
Title : SDH
Language : English
Default : No
Forced : No

Menu
00:00:00.000 : en:Chapter 01
00:12:56.066 : en:Chapter 02
00:23:46.341 : en:Chapter 03
00:35:27.416 : en:Chapter 04
00:46:04.636 : en:Chapter 05
00:54:34.104 : en:Chapter 06
01:05:13.367 : en:Chapter 07
01:15:30.484 : en:Chapter 08

Другие фильмы
У данной публикации пока нет комментариев.
Будь первым, оставь своё мнение в комментариях!
Информация
Посетители, находящиеся в группе Гости, не могут оставлять комментарии к данной публикации.
Самый популярный релиз недели
WEB-DL 1080p 5.57 Gb ...

Кино копилка
...
Какую тему вы используете?

Реклама
Последние комментарии
...

Dimanchez

Сегодня, 10:12

...

lomoenot

Вчера, 16:43

...

ooofly

Вчера, 08:40

...

Laska020489

Вчера, 03:27

...

zombitto

29 сентября 2022 16:25