0

Толкин / Tolkien (2019) BDRemux 1080p от селезень | Лицензия

Информация о фильме
Название: Толкин
Оригинальное название: Tolkien
Год выхода: 2019
Жанр: Драма, биография
Режиссер: Доме Карукоски
В ролях: Лили Коллинз, Николас Холт, Лора Доннелли, Патрик Гибсон, Женевьев О'Рейли, Пэм Феррис, Дерек Джекоби, Колм Мини, Крэйг Робертс, Мими Кин, Гарри Джилби, Гильермо Бедуорд, Ниа Гвин

Толкин / Tolkien (2019) BDRemux 1080p от селезень | Лицензия

О фильме: Картина рассказывает о том, как молодой писатель, будучи изгоем во время обучения, находит дружбу, любовь и вдохновение. Фильм затронет участие Толкина в Первой мировой войне — он служил в британских войсках с 1916-го по 1920-й.

Страна: США
Студия: Fox Searchlight Pictures, Chernin Entertainment
Продолжительность: 01:51:42
Перевод: Профессиональный многоголосый | Лицензия

Качество: BDRemux 1080p
Видео: MPEG-4 AVC, 1920x1080, 31.3 Mbit/s, 23.976 fps
Аудио #01: 48 kHz, DTS, 5.1, 768 Kbps | Лицензия | RUS |
Аудио #02: 48 kHz, AC3, 5.1, 448 Kbps | Лицензия | RUS |
Аудио #03: 48 kHz, AC3, 5.1, 448 Kbps | Лицензия | UKR |
Аудио #04: 48 kHz, DTS-HD MA, 5.1, 3437 Kbps | Оригинал | ENG |
Субтитры: Русские (Forced, 2 x full), английские

Авторизуйтесь для получения доступа к скачиванию

Нет аккаунта? Регистрация открыта и займёт меньше минуты

Вход Регистрация

General
Unique ID : 217792590403585418787284542147254363633 (0xA3D953C0425C718E94A6453A056525F1)
Complete name : F:VideoTolkien.2019.Lic.BDREMUX.1080p.seleZen.mkv
Format : Matroska
Format version : Version 4
File size : 28.4 GiB
Duration : 1 h 51 min
Overall bit rate mode : Variable
Overall bit rate : 36.4 Mb/s
Movie name : Tolkien 2019 from селезень
Encoded date : UTC 2019-10-10 16:05:55
Writing application : mkvmerge v22.0.0 ('At The End Of The World') 64-bit
Writing library : libebml v1.3.5 + libmatroska v1.4.8

Video
ID : 1
Format : AVC
Format/Info : Advanced Video Codec
Format profile : [email protected]
Format settings : CABAC / 2 Ref Frames
Format settings, CABAC : Yes
Format settings, Reference : 2 frames
Codec ID : V_MPEG4/ISO/AVC
Duration : 1 h 51 min
Bit rate mode : Variable
Bit rate : 31.3 Mb/s
Width : 1 920 pixels
Height : 1 080 pixels
Display aspect ratio : 16:9
Frame rate mode : Constant
Frame rate : 23.976 (24000/1001) FPS
Color space : YUV
Chroma subsampling : 4:2:0
Bit depth : 8 bits
Scan type : Progressive
Bits/(Pixel*Frame) : 0.630
Stream size : 24.4 GiB (86%)
Language : English
Default : Yes
Forced : No

Audio #1
ID : 2
Format : DTS
Format/Info : Digital Theater Systems
Codec ID : A_DTS
Duration : 1 h 51 min
Bit rate mode : Constant
Bit rate : 768 kb/s
Channel(s) : 6 channels
Channel layout : C L R Ls Rs LFE
Sampling rate : 48.0 kHz
Frame rate : 93.750 FPS (512 SPF)
Bit depth : 24 bits
Compression mode : Lossy
Stream size : 614 MiB (2%)
Title : MVO [License]
Language : Russian
Default : Yes
Forced : Yes

Audio #2
ID : 3
Format : AC-3
Format/Info : Audio Coding 3
Commercial name : Dolby Digital
Codec ID : A_AC3
Duration : 1 h 51 min
Bit rate mode : Constant
Bit rate : 448 kb/s
Channel(s) : 6 channels
Channel layout : L R C LFE Ls Rs
Sampling rate : 48.0 kHz
Frame rate : 31.250 FPS (1536 SPF)
Bit depth : 16 bits
Compression mode : Lossy
Stream size : 358 MiB (1%)
Title : MVO [License]
Language : Russian
Service kind : Complete Main
Default : No
Forced : No

Audio #3
ID : 4
Format : AC-3
Format/Info : Audio Coding 3
Commercial name : Dolby Digital
Codec ID : A_AC3
Duration : 1 h 51 min
Bit rate mode : Constant
Bit rate : 448 kb/s
Channel(s) : 6 channels
Channel layout : L R C LFE Ls Rs
Sampling rate : 48.0 kHz
Frame rate : 31.250 FPS (1536 SPF)
Bit depth : 16 bits
Compression mode : Lossy
Stream size : 358 MiB (1%)
Title : License
Language : Ukrainian
Service kind : Complete Main
Default : No
Forced : No

Audio #4
ID : 5
Format : DTS XLL
Format/Info : Digital Theater Systems
Commercial name : DTS-HD Master Audio
Codec ID : A_DTS
Duration : 1 h 51 min
Bit rate mode : Variable
Bit rate : 3 437 kb/s
Channel(s) : 6 channels
Channel layout : C L R Ls Rs LFE
Sampling rate : 48.0 kHz
Frame rate : 93.750 FPS (512 SPF)
Bit depth : 24 bits
Compression mode : Lossless
Stream size : 2.68 GiB (9%)
Title : Original
Language : English
Default : No
Forced : No

Text #1
ID : 6
Format : UTF-8
Codec ID : S_TEXT/UTF8
Codec ID/Info : UTF-8 Plain Text
Duration : 1 h 44 min
Bit rate : 1 b/s
Count of elements : 22
Stream size : 1.41 KiB (0%)
Title : Forced
Language : Russian
Default : Yes
Forced : Yes

Text #2
ID : 7
Format : UTF-8
Codec ID : S_TEXT/UTF8
Codec ID/Info : UTF-8 Plain Text
Duration : 1 h 45 min
Bit rate : 81 b/s
Count of elements : 1386
Stream size : 62.8 KiB (0%)
Title : Full
Language : Russian
Default : No
Forced : No

Text #3
ID : 8
Format : UTF-8
Codec ID : S_TEXT/UTF8
Codec ID/Info : UTF-8 Plain Text
Duration : 1 h 45 min
Bit rate : 96 b/s
Count of elements : 1600
Stream size : 74.3 KiB (0%)
Title : Full (Focs)
Language : Russian
Default : No
Forced : No

Text #4
ID : 9
Format : UTF-8
Codec ID : S_TEXT/UTF8
Codec ID/Info : UTF-8 Plain Text
Duration : 1 h 45 min
Bit rate : 58 b/s
Count of elements : 1594
Stream size : 45.3 KiB (0%)
Title : Full
Language : English
Default : No
Forced : No

Text #5
ID : 10
Format : UTF-8
Codec ID : S_TEXT/UTF8
Codec ID/Info : UTF-8 Plain Text
Duration : 1 h 45 min
Bit rate : 66 b/s
Count of elements : 1759
Stream size : 51.7 KiB (0%)
Title : SDH
Language : English
Default : No
Forced : No

Menu
00:00:00.000 : en:00:00:00.000
00:06:27.137 : en:00:06:27.137
00:11:09.419 : en:00:11:09.419
00:15:51.117 : en:00:15:51.117
00:21:00.885 : en:00:21:00.885
00:25:53.802 : en:00:25:53.802
00:34:35.031 : en:00:34:35.031
00:37:46.639 : en:00:37:46.639
00:42:01.227 : en:00:42:01.227
00:44:44.098 : en:00:44:44.098
00:47:39.774 : en:00:47:39.774
00:52:04.955 : en:00:52:04.955
00:57:06.423 : en:00:57:06.423
00:59:59.971 : en:00:59:59.971
01:04:39.334 : en:01:04:39.334
01:08:09.002 : en:01:08:09.002
01:11:17.398 : en:01:11:17.398
01:14:29.090 : en:01:14:29.090
01:19:45.656 : en:01:19:45.656
01:26:09.539 : en:01:26:09.539
01:32:11.985 : en:01:32:11.985
01:35:52.497 : en:01:35:52.497
01:40:05.666 : en:01:40:05.666
01:45:06.091 : en:01:45:06.091

Другие фильмы
У данной публикации пока нет комментариев.
Будь первым, оставь своё мнение в комментариях!
Информация
Посетители, находящиеся в группе Гости, не могут оставлять комментарии к данной публикации.
Самый популярный релиз недели
WEB-DL 1080p 5.57 Gb ...

Кино копилка
...
Какую тему вы используете?

Реклама
Последние комментарии
...

Dimanchez

Сегодня, 10:12

...

lomoenot

Вчера, 16:43

...

ooofly

Вчера, 08:40

...

Laska020489

Вчера, 03:27

...

zombitto

29 сентября 2022 16:25