+1

Однажды в Стокгольме / Stockholm (2018) BDRemux 1080p от селезень | D, P | iTunes

Информация о фильме
Название: Однажды в Стокгольме
Оригинальное название: Stockholm
Год выхода: 2018
Жанр: Драма, комедия, криминал
Режиссер: Роберт Будро
В ролях: Марк Стронг, Нуми Рапас, Итэн Хоук, Кристофер Хейердал, Би Сантос, Торбьорн Харр, Шанти Рони, Марк Рендалл, Ханнеке Тэлбот, Джон Ралстон

Однажды в Стокгольме / Stockholm (2018) BDRemux 1080p от селезень | D, P | iTunes

О фильме: История термина «стокгольмский синдром», возникшего после захвата шведского банка в 1973 году. Шесть дней вооруженный грабитель Ян-Эрик Олссон продержал в заложниках четырех сотрудников банка, которые впоследствии встали на его защиту.

Страна: Канада, США
Студия: Darius Films, Lumanity Productions, JoBro Productions & Film Finance
Продолжительность: 01:32:38
Перевод(ы):
#1: Дублированный | iTunes

#2: Профессиональный многоголосый | HDRezka Studio

Качество: BDRemux 1080p
Видео: MPEG-4 AVC, 1920x1080, 21.8 Mbit/s, 24 fps
Звук:
Аудио #01: 48 kHz, AC3, 5.1, 384 Kbps | Дублированный | RUS |
Аудио #02: 48 kHz, AC3, 2.0, 192 Kbps | Профессиональный многоголосый | RUS |
Аудио #03: 48 kHz, DTS-HD MA, 5.1, 3066 Kbps | Оригинал | ENG |
Субтитры: Русские (Full), английские

Авторизуйтесь для получения доступа к скачиванию

Нет аккаунта? Регистрация открыта и займёт меньше минуты

Вход Регистрация

General
Unique ID : 3649468146384897805269462058490023669 (0x2BEDCABEDB36C17C3F7D883C0D24EF5)
Complete name : D:Video111Stockholm.2018.BDREMUX.1080p.seleZen.mkv
Format : Matroska
Format version : Version 4
File size : 16.5 GiB
Duration : 1 h 32 min
Overall bit rate mode : Variable
Overall bit rate : 25.5 Mb/s
Movie name : Stockholm 2018 from селезень
Encoded date : UTC 2019-10-11 13:19:33
Writing application : mkvmerge v22.0.0 ('At The End Of The World') 64-bit
Writing library : libebml v1.3.5 + libmatroska v1.4.8

Video
ID : 1
Format : AVC
Format/Info : Advanced Video Codec
Format profile : [email protected]
Format settings : CABAC / 4 Ref Frames
Format settings, CABAC : Yes
Format settings, Reference : 4 frames
Codec ID : V_MPEG4/ISO/AVC
Duration : 1 h 32 min
Bit rate mode : Variable
Bit rate : 21.8 Mb/s
Maximum bit rate : 35.0 Mb/s
Width : 1 920 pixels
Height : 1 080 pixels
Display aspect ratio : 16:9
Frame rate mode : Constant
Frame rate : 24.000 FPS
Color space : YUV
Chroma subsampling : 4:2:0
Bit depth : 8 bits
Scan type : Progressive
Bits/(Pixel*Frame) : 0.439
Stream size : 14.1 GiB (86%)
Language : English
Default : Yes
Forced : No

Audio #1
ID : 2
Format : AC-3
Format/Info : Audio Coding 3
Commercial name : Dolby Digital
Codec ID : A_AC3
Duration : 1 h 32 min
Bit rate mode : Constant
Bit rate : 384 kb/s
Channel(s) : 6 channels
Channel layout : L R C LFE Ls Rs
Sampling rate : 48.0 kHz
Frame rate : 31.250 FPS (1536 SPF)
Bit depth : 16 bits
Compression mode : Lossy
Stream size : 254 MiB (2%)
Title : Dub [iTunes]
Language : Russian
Service kind : Complete Main
Default : Yes
Forced : Yes

Audio #2
ID : 3
Format : AC-3
Format/Info : Audio Coding 3
Commercial name : Dolby Digital
Codec ID : A_AC3
Duration : 1 h 32 min
Bit rate mode : Constant
Bit rate : 192 kb/s
Channel(s) : 2 channels
Channel layout : L R
Sampling rate : 48.0 kHz
Frame rate : 31.250 FPS (1536 SPF)
Bit depth : 16 bits
Compression mode : Lossy
Stream size : 126 MiB (1%)
Title : MVO [HDRezka Studio]
Language : Russian
Service kind : Complete Main
Default : No
Forced : No

Audio #3
ID : 4
Format : DTS XLL
Format/Info : Digital Theater Systems
Commercial name : DTS-HD Master Audio
Codec ID : A_DTS
Duration : 1 h 32 min
Bit rate mode : Variable
Bit rate : 3 066 kb/s
Channel(s) : 6 channels
Channel layout : C L R Ls Rs LFE
Sampling rate : 48.0 kHz
Frame rate : 93.750 FPS (512 SPF)
Bit depth : 24 bits
Compression mode : Lossless
Stream size : 1.98 GiB (12%)
Title : Original
Language : English
Default : No
Forced : No

Text #1
ID : 5
Format : UTF-8
Codec ID : S_TEXT/UTF8
Codec ID/Info : UTF-8 Plain Text
Duration : 1 h 26 min
Bit rate : 106 b/s
Count of elements : 1643
Stream size : 67.2 KiB (0%)
Title : Full
Language : Russian
Default : No
Forced : No

Text #2
ID : 6
Format : UTF-8
Codec ID : S_TEXT/UTF8
Codec ID/Info : UTF-8 Plain Text
Duration : 1 h 27 min
Bit rate : 84 b/s
Count of elements : 1964
Stream size : 54.6 KiB (0%)
Title : SDH
Language : English
Default : No
Forced : No

Menu
00:00:00.000 : en:Chapter 01
00:00:50.125 : en:Chapter 02
00:06:34.292 : en:Chapter 03
00:07:46.167 : en:Chapter 04
00:16:47.250 : en:Chapter 05
00:25:39.042 : en:Chapter 06
00:31:16.333 : en:Chapter 07
00:38:48.542 : en:Chapter 08
00:44:37.708 : en:Chapter 09
00:49:57.875 : en:Chapter 10
00:57:19.958 : en:Chapter 11
01:14:37.208 : en:Chapter 12
01:27:02.042 : en:Chapter 13

Другие фильмы
У данной публикации пока нет комментариев.
Будь первым, оставь своё мнение в комментариях!
Информация
Посетители, находящиеся в группе Гости, не могут оставлять комментарии к данной публикации.
Самый популярный релиз недели
WEB-DL 1080p 5.57 Gb ...

Кино копилка
...
Какую тему вы используете?

Реклама
Последние комментарии
...

Dimanchez

Сегодня, 10:12

...

lomoenot

Вчера, 16:43

...

ooofly

Вчера, 08:40

...

Laska020489

Вчера, 03:27

...

zombitto

29 сентября 2022 16:25