+1

Король Лев / The Lion King (2019) BDRip 720p от селезень | Дублированный

Информация о фильме
Название: Король Лев
Оригинальное название: The Lion King
Год выхода: 2019
Жанр: Мультфильм, мюзикл, драма, приключения, семейный
Режиссер: Джон Фавро
В ролях: Джеймс Эрл Джонс, Дональд Гловер, Чиветел Эджиофор, Джон Оливер, Джон Кани, Элфри Вудард, Джейдон Маккрэри, Шахади Райт Джозеф, Пенни Джонсон, Кигэн-Майкл Ки

Король Лев / The Lion King (2019) BDRip 720p от селезень | Дублированный

О фильме: Действие фильма разворачивается в африканской саванне и повествует о молодом льве по имени Симба, который потерял своего отца Муфасу из-за своего злобного дяди Шрама и был изгнан из прайда в дальние края пустыни. Годы спустя он возвращается, чтобы вернуть себе трон.

Страна: США
Студия: Walt Disney Pictures, Fairview Entertainment
Продолжительность: 01:58:14
Перевод: Дублированный | iTunes

Качество: BDRip 720p
Видео: MPEG-4 AVC, 1280x720, 6500 Kbit/s, 23.976 fps
Аудио #01: 48 kHz, AC3, 5.1, 384 Kbps | iTunes | RUS |
Аудио #02: 48 kHz, AC3, 5.1, 640 Kbps | Оригинал | ENG |
Субтитры: Русские (Full, SDH), английские

Авторизуйтесь для получения доступа к скачиванию

Нет аккаунта? Регистрация открыта и займёт меньше минуты

Вход Регистрация

General
Unique ID : 298403230376584161501118575505930462589 (0xE07E5F26F8D11F3183B82C327F60257D)
Complete name : D:Video111The.Lion.King.2019.BDRip.720p.seleZen.mkv
Format : Matroska
Format version : Version 4
File size : 6.22 GiB
Duration : 1 h 58 min
Overall bit rate : 7 526 kb/s
Movie name : The Lion King 2019 from селезень
Encoded date : UTC 2019-10-12 10:33:47
Writing application : mkvmerge v22.0.0 ('At The End Of The World') 64-bit
Writing library : libebml v1.3.5 + libmatroska v1.4.8

Video
ID : 1
Format : AVC
Format/Info : Advanced Video Codec
Format profile : [email protected]
Format settings : CABAC / 9 Ref Frames
Format settings, CABAC : Yes
Format settings, Reference : 9 frames
Codec ID : V_MPEG4/ISO/AVC
Duration : 1 h 58 min
Bit rate : 6 500 kb/s
Width : 1 280 pixels
Height : 720 pixels
Display aspect ratio : 16:9
Frame rate mode : Constant
Frame rate : 23.976 (24000/1001) FPS
Color space : YUV
Chroma subsampling : 4:2:0
Bit depth : 8 bits
Scan type : Progressive
Bits/(Pixel*Frame) : 0.294
Stream size : 5.37 GiB (86%)
Title : Encoded by seleZen
Writing library : x264 core 148 r2705kMod 3f5ed56
Encoding settings : cabac=1 / ref=9 / deblock=1:-2:-2 / analyse=0x3:0x113 / me=umh / subme=11 / psy=1 / fade_compensate=0.00 / psy_rd=1.00:0.00 / mixed_ref=1 / me_range=32 / chroma_me=1 / trellis=2 / 8x8dct=1 / cqm=0 / deadzone=21,11 / fast_pskip=0 / chroma_qp_offset=-2 / threads=22 / lookahead_threads=5 / sliced_threads=0 / nr=0 / decimate=0 / interlaced=0 / bluray_compat=0 / constrained_intra=0 / fgo=0 / bframes=10 / b_pyramid=2 / b_adapt=2 / b_bias=0 / direct=3 / weightb=1 / open_gop=0 / weightp=2 / keyint=240 / keyint_min=23 / scenecut=40 / intra_refresh=0 / rc_lookahead=50 / rc=2pass / mbtree=0 / bitrate=6500 / ratetol=1.0 / qcomp=0.60 / qpmin=0 / qpmax=51 / qpstep=4 / cplxblur=20.0 / qblur=0.5 / vbv_maxrate=50000 / vbv_bufsize=62500 / nal_hrd=none / filler=0 / ip_ratio=1.40 / pb_ratio=1.30 / aq=3:0.80
Language : English
Default : Yes
Forced : No

Audio #1
ID : 2
Format : AC-3
Format/Info : Audio Coding 3
Commercial name : Dolby Digital
Codec ID : A_AC3
Duration : 1 h 58 min
Bit rate mode : Constant
Bit rate : 384 kb/s
Channel(s) : 6 channels
Channel layout : L R C LFE Ls Rs
Sampling rate : 48.0 kHz
Frame rate : 31.250 FPS (1536 SPF)
Bit depth : 16 bits
Compression mode : Lossy
Stream size : 325 MiB (5%)
Title : iTunes
Language : Russian
Service kind : Complete Main
Default : Yes
Forced : Yes

Audio #2
ID : 3
Format : AC-3
Format/Info : Audio Coding 3
Commercial name : Dolby Digital
Codec ID : A_AC3
Duration : 1 h 58 min
Bit rate mode : Constant
Bit rate : 640 kb/s
Channel(s) : 6 channels
Channel layout : L R C LFE Ls Rs
Sampling rate : 48.0 kHz
Frame rate : 31.250 FPS (1536 SPF)
Bit depth : 16 bits
Compression mode : Lossy
Stream size : 541 MiB (9%)
Title : Original
Language : English
Service kind : Complete Main
Default : No
Forced : No

Text #1
ID : 4
Format : UTF-8
Codec ID : S_TEXT/UTF8
Codec ID/Info : UTF-8 Plain Text
Duration : 1 h 55 min
Bit rate : 68 b/s
Count of elements : 1371
Stream size : 58.1 KiB (0%)
Title : Full
Language : Russian
Default : No
Forced : No

Text #2
ID : 5
Format : UTF-8
Codec ID : S_TEXT/UTF8
Codec ID/Info : UTF-8 Plain Text
Duration : 1 h 47 min
Bit rate : 89 b/s
Count of elements : 1642
Stream size : 70.4 KiB (0%)
Title : SDH
Language : Russian
Default : No
Forced : No

Text #3
ID : 6
Format : UTF-8
Codec ID : S_TEXT/UTF8
Codec ID/Info : UTF-8 Plain Text
Duration : 1 h 46 min
Bit rate : 50 b/s
Count of elements : 1369
Stream size : 39.1 KiB (0%)
Title : Full
Language : English
Default : No
Forced : No

Menu
00:00:00.000 : en:"Circle Of Life/Nants' Ingonyama"
00:04:50.499 : en:"Life's Not Fair"
00:10:51.067 : en:"Everything The Light Touches"
00:17:47.692 : en:"I Just Can't Wait To Be King"
00:23:53.015 : en:Elephant Graveyard
00:30:00.132 : en:Under The Stars
00:33:05.066 : en:"Be Prepared"
00:37:09.310 : en:Stampede
00:43:42.912 : en:Scar Takes Over
00:50:47.336 : en:Timon And Pumbaa
00:55:02.716 : en:"Hakuna Matata"
00:59:48.460 : en:Scar's Kingdom
01:06:27.233 : en:"Line Of Indifference"
01:14:32.093 : en:"The Lion Sleeps Tonight"
01:18:26.410 : en:"Can You Feel The Love Tonight"
01:23:07.900 : en:"He Lives In You"
01:28:04.654 : en:"Spirit"
01:33:10.877 : en:Simba Confronts Scar
01:37:13.745 : en:Battle For Pride Rock
01:44:39.190 : en:The Rightful King
01:47:47.336 : en:End Credits/"Never Too Late"

Другие фильмы
У данной публикации пока нет комментариев.
Будь первым, оставь своё мнение в комментариях!
Информация
Посетители, находящиеся в группе Гости, не могут оставлять комментарии к данной публикации.
Самый популярный релиз недели
WEB-DL 1080p 5.57 Gb ...

Кино копилка
...
Какую тему вы используете?

Реклама
Последние комментарии
...

Dimanchez

Сегодня, 10:12

...

lomoenot

Вчера, 16:43

...

ooofly

Вчера, 08:40

...

Laska020489

Вчера, 03:27

...

zombitto

29 сентября 2022 16:25