+9

Король Ричард / King Richard (2021) BDRemux 1080p от селезень | D

Информация о фильме
Название: Король Ричард
Оригинальное название: King Richard
Год выхода: 2021
Жанр: биография, спорт, драма
Режиссер: Рейнальдо Маркус Грин
В ролях: Уилл Смит, Онжаню Эллис, Санийя Сидни, Деми Синглтон, Джон Бернтал, Тони Голдуин, Микайла Лашэй Бартоломью, Даниэль Лоусон, Лайла Кроуфорд, Эрика Рингор

О фильме: Комптон, 1988 год. Отец пяти дочерей Ричард Уильямс уже давно составил подробный план на будущее своих девочек и упорно ему следует, а из восьмилетней Винус и семилетней Серены он намеревается сделать звёзд тенниса. Хотя Ричард с женой Брэнди мало что понимают в подготовке профессиональных теннисистов, они сами тренировали дочек и как могли ставили им технику. Всемирно известный тренер Пол Коэн, который работает с Питом Сампрасом и Джоном Макинроем, соглашается на бесплатные уроки, но только для Винус. Тогда Ричард записывает занятия на камеру, и Брэнди на их основе начинает тренировать Серену.

Страна: США
Студия: Keepin' It Reel, Star Thrower Entertainment, Warner Bros., Westbrook Studios
Продолжительность: 02:24:40
Перевод: Дублированный | Кинопоиск HD

Качество: BDRemux 1080p
Видео: MPEG-4 AVC, 1920x1080, 24.9 Mbit/s, 23.976 fps
Аудио #01: 48 kHz, E-AC3, 5.1, 448 Kbps | Дублированный | Кинопоиск HD | RUS |Король Ричард / King Richard (2021) BDRemux 1080p от селезень | D
Аудио #02: 48 kHz, AC3, 5.1, 448 Kbps | Дублированный | Кинопоиск HD | RUS |
Аудио #03: 48 kHz, TrueHD, 7.1, 2838 Kbps | Оригинал | ENG |
Аудио #04: 48 kHz, AC3, 5.1, 448 Kbps | Оригинал | ENG |
Субтитры: Русские (Forced, Full), английские

Авторизуйтесь для получения доступа к скачиванию

Нет аккаунта? Регистрация открыта и займёт меньше минуты

Вход Регистрация

General
Unique ID : 261696089111501497613139234103088091066 (0xC4E0D55BFD1F8653F91C8E67CB438FBA)
Complete name : D:\Video\King.Richard.2021.BDREMUX.1080p.seleZen.mkv
Format : Matroska
Format version : Version 4
File size : 29.5 GiB
Duration : 2 h 24 min
Overall bit rate mode : Variable
Overall bit rate : 29.1 Mb/s
Movie name : King Richard 2021 from seleZen
Encoded date : UTC 2022-02-02 09:42:55
Writing application : mkvmerge v59.0.0 ('Shining Star') 64-bit
Writing library : libebml v1.4.2 + libmatroska v1.6.4

Video
ID : 1
Format : AVC
Format/Info : Advanced Video Codec
Format profile : [email protected]
Format settings : CABAC / 2 Ref Frames
Format settings, CABAC : Yes
Format settings, Reference : 2 frames
Codec ID : V_MPEG4/ISO/AVC
Duration : 2 h 24 min
Bit rate mode : Variable
Bit rate : 24.9 Mb/s
Width : 1 920 pixels
Height : 1 080 pixels
Display aspect ratio : 16:9
Frame rate mode : Constant
Frame rate : 23.976 (24000/1001) FPS
Color space : YUV
Chroma subsampling : 4:2:0
Bit depth : 8 bits
Scan type : Progressive
Bits/(Pixel*Frame) : 0.501
Stream size : 25.2 GiB (85%)
Language : English
Default : No
Forced : No

Audio #1
ID : 2
Format : E-AC-3
Format/Info : Enhanced AC-3
Commercial name : Dolby Digital Plus
Codec ID : A_EAC3
Duration : 2 h 24 min
Bit rate mode : Constant
Bit rate : 448 kb/s
Channel(s) : 6 channels
Channel layout : L R C LFE Ls Rs
Sampling rate : 48.0 kHz
Frame rate : 31.250 FPS (1536 SPF)
Compression mode : Lossy
Stream size : 464 MiB (2%)
Title : Dub
Language : Russian
Service kind : Complete Main
Default : Yes
Forced : Yes

Audio #2
ID : 3
Format : AC-3
Format/Info : Audio Coding 3
Commercial name : Dolby Digital
Codec ID : A_AC3
Duration : 2 h 24 min
Bit rate mode : Constant
Bit rate : 448 kb/s
Channel(s) : 6 channels
Channel layout : L R C LFE Ls Rs
Sampling rate : 48.0 kHz
Frame rate : 31.250 FPS (1536 SPF)
Compression mode : Lossy
Stream size : 464 MiB (2%)
Title : Dub
Language : Russian
Service kind : Complete Main
Default : No
Forced : No

Audio #3
ID : 4
Format : MLP FBA 16-ch
Format/Info : Meridian Lossless Packing FBA with 16-channel presentation
Commercial name : Dolby TrueHD with Dolby Atmos
Codec ID : A_TRUEHD
Duration : 2 h 24 min
Bit rate mode : Variable
Bit rate : 2 838 kb/s
Maximum bit rate : 3 645 kb/s
Channel(s) : 8 channels
Channel layout : L R C LFE Ls Rs Lb Rb
Sampling rate : 48.0 kHz
Frame rate : 1 200.000 FPS (40 SPF)
Compression mode : Lossless
Stream size : 2.87 GiB (10%)
Title : Original
Language : English
Default : No
Forced : No
Number of dynamic objects : 11
Bed channel count : 1 channel
Bed channel configuration : LFE

Audio #4
ID : 5
Format : AC-3
Format/Info : Audio Coding 3
Commercial name : Dolby Digital
Format settings : Dolby Surround EX
Codec ID : A_AC3
Duration : 2 h 24 min
Bit rate mode : Constant
Bit rate : 448 kb/s
Channel(s) : 6 channels
Channel layout : L R C LFE Ls Rs
Sampling rate : 48.0 kHz
Frame rate : 31.250 FPS (1536 SPF)
Compression mode : Lossy
Stream size : 464 MiB (2%)
Language : English
Service kind : Complete Main
Default : No
Forced : No

Text #1
ID : 6
Format : UTF-8
Codec ID : S_TEXT/UTF8
Codec ID/Info : UTF-8 Plain Text
Duration : 2 h 17 min
Bit rate : 0 b/s
Count of elements : 20
Stream size : 949 Bytes (0%)
Title : Forced
Language : Russian
Default : Yes
Forced : Yes

Text #2
ID : 7
Format : UTF-8
Codec ID : S_TEXT/UTF8
Codec ID/Info : UTF-8 Plain Text
Duration : 2 h 23 min
Bit rate : 113 b/s
Count of elements : 2035
Stream size : 119 KiB (0%)
Title : Full
Language : Russian
Default : No
Forced : No

Text #3
ID : 8
Format : UTF-8
Codec ID : S_TEXT/UTF8
Codec ID/Info : UTF-8 Plain Text
Duration : 2 h 18 min
Bit rate : 85 b/s
Count of elements : 2671
Stream size : 87.3 KiB (0%)
Title : Full
Language : English
Default : No
Forced : No

Text #4
ID : 9
Format : UTF-8
Codec ID : S_TEXT/UTF8
Codec ID/Info : UTF-8 Plain Text
Duration : 2 h 18 min
Bit rate : 99 b/s
Count of elements : 2975
Stream size : 101 KiB (0%)
Title : SDH
Language : English
Default : No
Forced : No

Menu
00:00:00.000 : Chapter 01
00:10:36.886 : Chapter 02
00:20:04.370 : Chapter 03
00:28:38.717 : Chapter 04
00:40:24.297 : Chapter 05
00:50:42.665 : Chapter 06
00:58:19.913 : Chapter 07
01:10:56.502 : Chapter 08
01:19:14.667 : Chapter 09
01:29:03.380 : Chapter 10
01:40:26.187 : Chapter 11
01:50:23.492 : Chapter 12
01:59:11.186 : Chapter 13
02:11:52.780 : Chapter 14
02:17:17.604 : Chapter 15

Другие фильмы
У данной публикации пока нет комментариев.
Будь первым, оставь своё мнение в комментариях!
Информация
Посетители, находящиеся в группе Гости, не могут оставлять комментарии к данной публикации.
Самый популярный релиз недели
WEB-DL 1080p 5.57 Gb ...

Кино копилка
...
Какую тему вы используете?

Реклама
Последние комментарии
...

Dimanchez

Сегодня, 10:12

...

lomoenot

Вчера, 16:43

...

ooofly

Вчера, 08:40

...

Laska020489

Вчера, 03:27

...

zombitto

29 сентября 2022 16:25