+7

Мавританец / The Mauritanian (2021) UHD BDRemux 2160p от селезень | 4K | HDR | D, P, A | iTunes

Информация о фильме
Название: Мавританец
Оригинальное название: The Mauritanian
Год выхода: 2021
Жанр: Биография, драма, триллер
Режиссер: Кевин Макдональд
В ролях: Джоди Фостер, Тахар Рахим, Закари Ливай, Саамер Усмани, Бенедикт Камбербэтч, Шейлин Вудли, Стевель Марк, Незар Альдерази, Клэйтон Бойд, Фрэнсис Чалер


О фильме: Не получив официальных обвинений и возможности защиты в суде, Мохаммед Ульд Слахи провел в тюрьме Гуантанамо более 6 лет. Только после этого он был удостоен права иметь адвокатов. Но и им в борьбе с правительственной машиной предстоит побороть личные сомнения.

Страна: Великобритания, США
Студия: 30West, BBC Films, Convergent Media, First Look Media, Great Point Media, Shadowplay Features, SunnyMarch, Wonder Street
Продолжительность: 02:09:37
Перевод(ы):
#1: Дублированный | iTunes
#2: Профессиональный многоголосый | HDRezka Studio
#3: Авторский | Карповский


Качество: BDRemux 2160p
Видео: 3840x2160 at 23.976 fps, MPEG-H HEVC HDR Video, ~ 75900 kbps avg
Аудио #01: 48 kHz, AC3, 5.1, 384 Kbps | Дублированный | iTunes | RUS |Мавританец / The Mauritanian (2021) UHD BDRemux 2160p от селезень | 4K | HDR | D, P, A | iTunes
Аудио #02: 48 kHz, AC3, 5.1, 448 Kbps | Профессиональный многоголосый | HDRezka Studio | RUS |
Аудио #03: 48 kHz, AC3, 5.1, 640 Kbps | Авторский | Карповский | RUS |
Аудио #04: 48 kHz, AC3, 5.1, 384 Kbps | Дублированный | iTunes | UKR |
Аудио #05: 48 kHz, DTS-HD MA, 7.1, 4026 Kbps | Оригинал | ENG |
Субтитры: Русские (Forced, 2 x full [Enigma, FOCS]), украинские (Forced), английские

Авторизуйтесь для получения доступа к скачиванию

Нет аккаунта? Регистрация открыта и займёт меньше минуты

Вход Регистрация

General
Unique ID : 294656489859354426513698927057162209362 (0xDDACC6951D79C82BFCDE7726D5B40852)
Complete name : E:\Video\The.Mauritanian.2021.BDREMUX.2160p.HDR.seleZen.mkv
Format : Matroska
Format version : Version 4
File size : 73.7 GiB
Duration : 2 h 9 min
Overall bit rate mode : Variable
Overall bit rate : 81.6 Mb/s
Movie name : The Mauritanian 2021 from seleZen
Encoded date : UTC 2021-12-06 17:35:37
Writing application : mkvmerge v59.0.0 ('Shining Star') 64-bit
Writing library : libebml v1.4.2 + libmatroska v1.6.4

Video
ID : 1
ID in the original source medium : 4113 (0x1011)
Format : HEVC
Format/Info : High Efficiency Video Coding
Format profile : Main [email protected]@High
HDR format : SMPTE ST 2086, HDR10 compatible
Codec ID : V_MPEGH/ISO/HEVC
Duration : 2 h 9 min
Bit rate : 75.9 Mb/s
Width : 3 840 pixels
Height : 2 160 pixels
Display aspect ratio : 16:9
Frame rate mode : Constant
Frame rate : 23.976 (24000/1001) FPS
Color space : YUV
Chroma subsampling : 4:2:0 (Type 2)
Bit depth : 10 bits
Bits/(Pixel*Frame) : 0.382
Stream size : 68.5 GiB (93%)
Writing library : ATEME Titan File 3.9.4 (4.9.4.12)
Default : Yes
Forced : No
Color range : Limited
Color primaries : BT.2020
Transfer characteristics : PQ
Matrix coefficients : BT.2020 non-constant
Mastering display color primaries : BT.2020
Mastering display luminance : min: 0.0050 cd/m2, max: 1000 cd/m2
Maximum Content Light Level : 594 cd/m2
Maximum Frame-Average Light Level : 109 cd/m2
Original source medium : Blu-ray

Audio #1
ID : 2
Format : AC-3
Format/Info : Audio Coding 3
Commercial name : Dolby Digital
Codec ID : A_AC3
Duration : 2 h 9 min
Bit rate mode : Constant
Bit rate : 384 kb/s
Channel(s) : 6 channels
Channel layout : L R C LFE Ls Rs
Sampling rate : 48.0 kHz
Frame rate : 31.250 FPS (1536 SPF)
Compression mode : Lossy
Stream size : 355 MiB (0%)
Title : Dub [iTunes]
Language : Russian
Service kind : Complete Main
Default : Yes
Forced : Yes

Audio #2
ID : 3
Format : AC-3
Format/Info : Audio Coding 3
Commercial name : Dolby Digital
Codec ID : A_AC3
Duration : 2 h 9 min
Bit rate mode : Constant
Bit rate : 448 kb/s
Channel(s) : 6 channels
Channel layout : L R C LFE Ls Rs
Sampling rate : 48.0 kHz
Frame rate : 31.250 FPS (1536 SPF)
Compression mode : Lossy
Stream size : 414 MiB (1%)
Title : MVO [HDRezka Studio]
Language : Russian
Service kind : Complete Main
Default : No
Forced : No

Audio #3
ID : 4
Format : AC-3
Format/Info : Audio Coding 3
Commercial name : Dolby Digital
Codec ID : A_AC3
Duration : 2 h 9 min
Bit rate mode : Constant
Bit rate : 448 kb/s
Channel(s) : 6 channels
Channel layout : L R C LFE Ls Rs
Sampling rate : 48.0 kHz
Frame rate : 31.250 FPS (1536 SPF)
Compression mode : Lossy
Stream size : 414 MiB (1%)
Title : AVO [Karpovskiy]
Language : Russian
Service kind : Complete Main
Default : No
Forced : No

Audio #4
ID : 5
Format : AC-3
Format/Info : Audio Coding 3
Commercial name : Dolby Digital
Codec ID : A_AC3
Duration : 2 h 9 min
Bit rate mode : Constant
Bit rate : 384 kb/s
Channel(s) : 6 channels
Channel layout : L R C LFE Ls Rs
Sampling rate : 48.0 kHz
Frame rate : 31.250 FPS (1536 SPF)
Compression mode : Lossy
Stream size : 355 MiB (0%)
Title : Dub [iTunes]
Language : Ukrainian
Service kind : Complete Main
Default : No
Forced : No

Audio #5
ID : 6
ID in the original source medium : 4353 (0x1101)
Format : DTS XLL
Format/Info : Digital Theater Systems
Commercial name : DTS-HD Master Audio
Codec ID : A_DTS
Duration : 2 h 9 min
Bit rate mode : Variable
Bit rate : 4 026 kb/s
Channel(s) : 8 channels
Channel layout : C L R LFE Lb Rb Lss Rss
Sampling rate : 48.0 kHz
Frame rate : 93.750 FPS (512 SPF)
Bit depth : 24 bits
Compression mode : Lossless
Stream size : 3.64 GiB (5%)
Title : Original
Language : English
Default : Yes
Forced : No
Original source medium : Blu-ray

Text #1
ID : 7
Format : UTF-8
Codec ID : S_TEXT/UTF8
Codec ID/Info : UTF-8 Plain Text
Duration : 2 h 5 min
Bit rate : 13 b/s
Count of elements : 267
Stream size : 12.5 KiB (0%)
Title : Forced [HDRezka Studio]
Language : Russian
Default : No
Forced : No

Text #2
ID : 8
Format : UTF-8
Codec ID : S_TEXT/UTF8
Codec ID/Info : UTF-8 Plain Text
Duration : 2 h 5 min
Bit rate : 105 b/s
Count of elements : 1686
Stream size : 97.4 KiB (0%)
Title : Full [Enigma]
Language : Russian
Default : No
Forced : No

Text #3
ID : 9
Format : UTF-8
Codec ID : S_TEXT/UTF8
Codec ID/Info : UTF-8 Plain Text
Duration : 2 h 6 min
Bit rate : 106 b/s
Count of elements : 1702
Stream size : 98.8 KiB (0%)
Title : Full (FOCS)
Language : Russian
Default : No
Forced : No

Text #4
ID : 10
Format : UTF-8
Codec ID : S_TEXT/UTF8
Codec ID/Info : UTF-8 Plain Text
Duration : 2 h 5 min
Bit rate : 14 b/s
Count of elements : 262
Stream size : 13.3 KiB (0%)
Title : Forced [HDRezka Studio]
Language : Ukrainian
Default : No
Forced : No

Text #5
ID : 11
Format : UTF-8
Codec ID : S_TEXT/UTF8
Codec ID/Info : UTF-8 Plain Text
Duration : 1 h 40 min
Bit rate : 6 b/s
Count of elements : 175
Stream size : 4.56 KiB (0%)
Title : Forced
Language : English
Default : No
Forced : No

Text #6
ID : 12
Format : UTF-8
Codec ID : S_TEXT/UTF8
Codec ID/Info : UTF-8 Plain Text
Duration : 2 h 1 min
Bit rate : 57 b/s
Count of elements : 1447
Stream size : 50.9 KiB (0%)
Title : Full
Language : English
Default : No
Forced : No

Text #7
ID : 13
Format : UTF-8
Codec ID : S_TEXT/UTF8
Codec ID/Info : UTF-8 Plain Text
Duration : 2 h 6 min
Bit rate : 60 b/s
Count of elements : 1646
Stream size : 56.2 KiB (0%)
Title : SDH
Language : English
Default : No
Forced : No

Menu
00:00:00.000 : Chapter 01
00:05:54.395 : Chapter 02
00:13:11.332 : Chapter 03
00:23:20.649 : Chapter 04
00:28:50.895 : Chapter 05
00:37:40.675 : Chapter 06
00:44:12.483 : Chapter 07
00:54:47.701 : Chapter 08
01:02:53.227 : Chapter 09
01:12:17.791 : Chapter 10
01:21:23.003 : Chapter 11
01:31:00.246 : Chapter 12
01:39:35.469 : Chapter 13
01:45:45.964 : Chapter 14
01:53:48.071 : Chapter 15
02:03:57.430 : Chapter 16

Другие фильмы
У данной публикации пока нет комментариев.
Будь первым, оставь своё мнение в комментариях!
Информация
Посетители, находящиеся в группе Гости, не могут оставлять комментарии к данной публикации.
Самый популярный релиз недели
WEB-DL 1080p 5.57 Gb ...

Кино копилка
...
Какую тему вы используете?

Реклама
Последние комментарии
...

Dimanchez

Сегодня, 10:12

...

lomoenot

Вчера, 16:43

...

ooofly

Вчера, 08:40

...

Laska020489

Вчера, 03:27

...

zombitto

29 сентября 2022 16:25