+1

Соник в кино / Sonic the Hedgehog (2020) UHD BDRemux 2160p от селезень | 4K | HDR | Dolby Vision TV | Лицензия

Информация о фильме
Название: Соник в кино
Оригинальное название: Sonic the Hedgehog
Год выхода: 2020
Жанр: Фантастика, фэнтези, боевик, приключения, комедия, семейный
Режиссер: Джефф Фаулер
В ролях: Джеймс Марсден, Бен Шварц, Наташа Ротуэлл, Тика Самптер, Нил МакДонаф, Адам Палли, Джим Керри, Майкл Хоган, Ли Мадждуб, Том Батлер, Фрэнк Ч. Тёрнер


О фильме: Отвязный ярко-синий ежик Соник вместе с новообретенным - человеческим - лучшим другом Томом Вачовски он знакомится со сложностями жизни на Земле и противостоит злодейскому доктору Роботнику, который хочет пленить Соника и использовать его безграничные суперсилы для завоевания мирового господства.

Страна: США, Япония, Канада
Студия: Paramount Pictures, Sega, Original Film
Продолжительность: 01:38:53
Перевод: Дублированный | Лицензия


Качество: BDRemux 2160p
Видео: 3840x2160 at 23.976 fps, MPEG-H HEVC HDR, Dolby Vision Video, 59500 kbps avg
Аудио: 48 kHz, AC3, 5.1, 640 Kbps | Дублированный | RUS |Соник в кино / Sonic the Hedgehog (2020) UHD BDRemux 2160p от селезень | 4K | HDR | Dolby Vision TV | Лицензия
Субтитры: Русские (Forced, отдельно)

Авторизуйтесь для получения доступа к скачиванию

Нет аккаунта? Регистрация открыта и займёт меньше минуты

Вход Регистрация

General
Complete name : D:\Video222\Sonic.The.Hedgehog.2020.Lic.BDREMUX.2160p.HDR_DV_TV_DL.seleZen\Sonic.The.Hedgehog.2020.Lic.BDREMUX.2160p.HDR_DV_TV_DL.seleZen.mp4
Format : MPEG-4
Format profile : Base Media / Version 2
Codec ID : mp42 (mp42/dby1/isom)
File size : 44.3 GiB
Duration : 1 h 38 min
Overall bit rate : 64.2 Mb/s
Encoded date : UTC 2020-05-13 02:34:44
Tagged date : UTC 2020-05-13 02:34:44
IsTruncated : Yes

Video #1
ID : 1
Format : HEVC
Format/Info : High Efficiency Video Coding
Format profile : Main [email protected]@High
HDR format : SMPTE ST 2086, HDR10 compatible
Codec ID : hev1
Codec ID/Info : High Efficiency Video Coding
Duration : 1 h 38 min
Bit rate : 59.5 Mb/s
Width : 3 840 pixels
Height : 2 160 pixels
Display aspect ratio : 16:9
Frame rate mode : Constant
Frame rate : 23.976 (24000/1001) FPS
Color space : YUV
Chroma subsampling : 4:2:0 (Type 2)
Bit depth : 10 bits
Bits/(Pixel*Frame) : 0.299
Stream size : 41.1 GiB (93%)
Default : No
Encoded date : UTC 2020-05-13 02:34:44
Tagged date : UTC 2020-05-13 02:34:44
Color range : Limited
Color primaries : BT.2020
Transfer characteristics : PQ
Matrix coefficients : BT.2020 non-constant
Mastering display color pri : Display P3
Mastering display luminance : min: 0.0050 cd/m2, max: 4000 cd/m2
Maximum Content Light Level : 698 cd/m2
Maximum Frame-Average Light : 204 cd/m2
Codec configuration box : hvcC

Video #2
ID : 2
Format : HEVC
Format/Info : High Efficiency Video Coding
Format profile : Main [email protected]@High
HDR format : Dolby Vision, Version 1.0, dvhe.07.06, EL+RPU, Blu-ray compatible / SMPTE ST 2086, HDR10 compatible
Codec ID : dvhe
Codec ID/Info : High Efficiency Video Coding with Dolby Vision
Duration : 1 h 38 min
Bit rate : 4 962 kb/s
Width : 1 920 pixels
Height : 1 080 pixels
Display aspect ratio : 16:9
Frame rate mode : Constant
Frame rate : 23.976 (24000/1001) FPS
Color space : YUV
Chroma subsampling : 4:2:0 (Type 2)
Bit depth : 10 bits
Bits/(Pixel*Frame) : 0.100
Stream size : 3.43 GiB (8%)
Default : No
Encoded date : UTC 2020-05-13 02:34:44
Tagged date : UTC 2020-05-13 02:34:44
Color range : Limited
Color primaries : BT.2020
Transfer characteristics : PQ
Matrix coefficients : BT.2020 non-constant
Mastering display color pri : Display P3
Mastering display luminance : min: 0.0050 cd/m2, max: 4000 cd/m2
Codec configuration box : hvcC+dvcC

Audio
ID : 3
Format : AC-3
Format/Info : Audio Coding 3
Commercial name : Dolby Digital
Codec ID : ac-3
Duration : 1 h 38 min
Bit rate mode : Constant
Bit rate : 640 kb/s
Channel(s) : 6 channels
Channel layout : L R C LFE Ls Rs
Sampling rate : 48.0 kHz
Frame rate : 31.250 FPS (1536 SPF)
Compression mode : Lossy
Stream size : 453 MiB (1%)
Language : Russian
Service kind : Complete Main
Default : No
Encoded date : UTC 2020-05-13 02:34:44
Tagged date : UTC 2020-05-13 02:34:44

Другие фильмы
Комментарии:

...
Uitaka 13 августа 2022 15:21
0

Раздайте пожалуйста. Очень хоцца.

Информация
Посетители, находящиеся в группе Гости, не могут оставлять комментарии к данной публикации.
Самый популярный релиз недели
WEB-DL 1080p 5.57 Gb ...

Кино копилка
...
Какую тему вы используете?

Реклама
Последние комментарии
...

Dimanchez

Сегодня, 10:12

...

lomoenot

Вчера, 16:43

...

ooofly

Вчера, 08:40

...

Laska020489

Вчера, 03:27

...

zombitto

29 сентября 2022 16:25